.
Авторизация | Регистрация
Хочешь лучшие торренты? Добавь свой email!
Добавить
» » Уцелевший / Lone Survivor (2013) BDRip-AVC | Лицензия скачать через торрент бесплатно




    Уцелевший / Lone Survivor (2013) BDRip-AVC | Лицензия скачать через торрент бесплатно

    Опубликовал: Админ | Дата: 27-02-2015, 11:10 | Просмотров: 239


    УЦЕЛЕВШИЙ ?

    Детально о кино
    Русское название: Уцелевший
    Русское название в мировом прокате: Lone Survivor
    Год выпуска: 2013
    Производство: США, Emmett/Furla Films, Envision Entertainment, Film 44
    Жанр: Боевик, Военный, Драма
    Продолжительность: 02:01:14
    Перевод: Дублированный (Лицензия)
    Субтитры: русские

    Главный режиссер: Питер Берг

    Продюсер: Сара Обри, Рэндолл Эмметт, Акива Голдсман
    Актеры: Марк Уолберг, Тейлор Китч, Эмиль Хирш, Бен Фостер, Юсуф Азами, Али Сулиман, Эрик Бана, Александр Людвиг, Рич Тинг, Дэн Билзериан

    Сюжет фильма:
    Афганистан, 2005 год. Команда американских спецназовцев получает задание обезвредить известного лидера талибов Ахмада Шаха. Попав в ловушку, солдаты принимают неравный кровопролитный бой, и все они погибают героями. Все, кроме одного. Для уцелевшего Маркуса Латтрела бой только начинается: он любой ценой должен выжить и пробраться к своим. Когда почти всё потеряно, ему решается помочь Гулаб — мирный человек, ненавидящий войну.



    Файл
    Качество фильма: BDRip (AVC)
    Информация о видео: MPEG-4 AVC, 2123 Кбит/с, 1024x428
    Информация о звуке: AC3, 6 ch, 448 Кбит/с
    Семпл

    Релиз:

    MediaInfo
    x264 info: frame I:1438 Avg QP:15.78 size: 65070
    x264 info: frame P:54497 Avg QP:19.56 size: 19375
    x264 info: frame B:118641 Avg QP:20.98 size: 6568
    x264 info: consecutive B-frames: 9.9% 8.1% 15.5% 21.3% 15.2% 20.5% 3.7% 1.7% 1.4% 0.7% 0.5% 0.6% 1.0%
    **********************************************************************************************************************
    Формат : Matroska
    Версия формата : Version 4 / Version 2
    Размер файла : 2,18 Гбайт
    Продолжительность : 2 ч. 1 м.
    Общий поток : 2571 Кбит/сек
    Название фильма : -=MediaClub-kaspr=-
    Дата кодирования : UTC 2014-03-22 11:20:23
    Программа кодирования : mkvmerge v6.8.0 (;Theme for Great Cities;) 64bit built on Mar 2 2014 21:34:26
    Библиотека кодирования : libebml v1.3.0 libmatroska v1.4.1

    Видео
    Идентификатор : 1
    Формат : AVC
    Формат/Информация : Advanced Video Codec
    Профиль формата : High@L4.1
    Параметр CABAC формата : Да
    Параметр ReFrames формата : 10 кадров
    Идентификатор кодека : V_MPEG4/ISO/AVC
    Продолжительность : 2 ч. 1 м.
    Битрейт : 2123 Кбит/сек
    Ширина : 1024 пикселя
    Высота : 428 пикселей
    Соотношение сторон : 2,40:1
    Режим частоты кадров : Постоянный
    Частота кадров : 24,000 кадра/сек
    Цветовое пространство : YUV
    Субдискретизация насыщенности : 4:2:0
    Битовая глубина : 8 бит
    Тип развёртки : Прогрессивная
    Бит/(Пиксели*Кадры) : 0.202
    Размер потока : 1,75 Гбайт (81%)
    Заголовок : -=MediaClub-kaspr=-
    Библиотека кодирования : x264 core 142 r2409 42 04be48a tMod 8-bit@4:2:0 X86_64
    Настройки программы : cabac=1 / ref=10 / deblock=1:-3:-3 / analyse=0x3:0x113 / me=umh / subme=11 / psy=1 / fade_compensate=0.00 / psy_rd=1.00:0.20 / mixed_ref=1 / me_range=32 / chroma_me=1 / trellis=2 / 8x8dct=1 / cqm=0 / deadzone=21,11 / fast_pskip=0 / chroma_qp_offset=-3 / threads=12 / lookahead_threads=3 / sliced_threads=0 / nr=0 / decimate=0 / interlaced=0 / bluray_compat=0 / constrained_intra=0 / fgo=0 / bframes=12 / b_pyramid=2 / b_adapt=2 / b_bias=0 / direct=3 / weightb=1 / open_gop=0 / weightp=2 / keyint=240 / keyint_min=24 / scenecut=40 / intra_refresh=0 / rc=2pass / mbtree=0 / bitrate=2123 / ratetol=1.0 / qcomp=0.60 / qpmin=0:0:0 / qpmax=69:69:69 / qpstep=4 / cplxblur=20.0 / qblur=0.5 / ip_ratio=1.40 / pb_ratio=1.30 / aq=2:0.80 / aq-sensitivity=10.00 / aq-factor=1.00:1.00:1.00 / aq2=0 / aq3=0
    Default : Да
    Forced : Да

    Аудио
    Идентификатор : 2
    Формат : AC-3
    Формат/Информация : Audio Coding 3
    Расширение режима : CM (complete main)
    Параметр Endianness формата : Big
    Идентификатор кодека : A_AC3
    Продолжительность : 2 ч. 1 м.
    Вид битрейта : Постоянный
    Битрейт : 448 Кбит/сек
    Каналы : 6 каналов
    Расположение каналов : Front: L C R, Side: L R, LFE
    Частота : 48,0 КГц
    Битовая глубина : 16 бит
    Метод сжатия : С потерями
    Размер потока : 388 Мбайт (17%)
    Заголовок : Dub
    Язык : Russian
    Default : Да
    Forced : Да

    Текст
    Идентификатор : 3
    Формат : UTF-8
    Идентификатор кодека : S_TEXT/UTF8
    Идентификатор кодека/Информация : UTF-8 Plain Text
    Язык : Russian
    Default : Нет
    Forced : Нет

    Меню
    00:00:00.000 : en:Chapter 01
    00:00:04.000 : en:Chapter 02
    00:17:17.416 : en:Chapter 03
    00:33:32.125 : en:Chapter 04
    00:51:09.208 : en:Chapter 05
    01:09:15.166 : en:Chapter 06
    01:21:26.833 : en:Chapter 07
    01:36:17.291 : en:Chapter 08
    01:47:52.750 : en:Chapter 09
    Скриншоты для ознакомления


    Размер скачиваемого торрента: 2.18 GB (2337624954 Bytes)

    Уцелевший / Lone Survivor (2013) BDRip-AVC | Лицензия скачать через торрент бесплатно
    загрузка...
    Рейтинг →
     (голосов: 1, оценка 5/5, голосовать можно 1 раз )

    Другие торренты по теме:

  • Уцелевший / Lone Survivor (2013) DVDScr | Sub скачать через торрент бесплатно
  • Уцелевший / Lone Survivor (2013) DVDScr | L1
  • Уцелевший / Lone Survivor (2013) DVDScr | L2 скачать через торрент бесплатно
  • Уцелевший / Lone Survivor (2013) DVDScr-AVC | iPhone скачать через торрент бесплатно
  • Уцелевший / Lone Survivor (2013) HDTVRip 720p | L1, L2 скачать через торрент бесплатно
  • OST - Уцелевший / Lone Survivor (2013) MP3 скачать через торрент бесплатно
  • Уцелевший / Lone Survivor (2013) DVDScr
  • Уцелевший / Lone Survivor (2013) DVDScr | Звук с TS скачать через торрент бесплатно


    • Комментарии (0):

      Информация

      Информация

        Посетители, находящиеся в группе Гости, не могут оставлять комментарии в данной новости.

        ↓ Меню



        ↓ Опрос

        А Вы добавили сайт в закладки?
        Да
        Не


        Top 10 за месяц (Фильмы)