.
Авторизация | Регистрация
Хочешь лучшие торренты? Добавь свой email!
Добавить
» » Внутри Льюина Дэвиса / Inside Llewyn Davis (2013) BDRip от New-Team | D | лицензия скачать через торрент бесплатно




    Внутри Льюина Дэвиса / Inside Llewyn Davis (2013) BDRip от New-Team | D | лицензия скачать через торрент бесплатно

    Опубликовал: Админ | Дата: 27-02-2015, 11:10 | Просмотров: 257



    Снималось в: США, Великобритания, Франция / Mike Zoss Productions, Scott Rudin Productions, StudioCanal

    Категория жанра: драма, музыка
    Создали в: 2013
    Время просмотра: 01:44:36
    Перевод текста: Профессиональный (дублированный)
    Субтитры подготовлены: русский, английский
    Оригинальная аудиодорожка: английский (отдельным файлом)

    Главный режиссер: Итан Коэн / Ethan Coen, Джоэл Коэн / Joel Coen

    Актеры: Оскар Айзек, Кэри Маллиган, Итэн Филлипс, Робин Бартлетт, Джон Гудман, Джастин Тимберлэйк, Макс Казелла, Гаррет Хедлунд, Джерри Грэйсон, Ф. Мюррэй Абрахам...

    Роли дублировали: Даниил Эльдаров, Наталья Фищук, Ирина Киреева, Александр Новиков, Илья Бледный...

    Сюжет: Богемные кварталы Манхэттена и клубы табачного дыма, пыльные дороги Америки и гигантские тиражи винила… Нью-Йорк. Конец 50-х.
    Льюин Дэвис, талантливый певец и гитарист из Квинса, с трудом перебивается между выступлениями в клубах Гринвич-Виллиджа, редкими записями на радио. Без дома и денег, запутавшись в любви, почти потеряв связь с семьей, он странствует по жизни в поисках себя. И не находит. Все, что у него есть — это музыка. Удастся ли разгадать тайны его музыки? Что там, внутри Льюина Дэвиса?



    Качество фильма: BDRip / Inside.Llewyn.Davis.2013.D.Blu-Ray.Remux.(1080p) DVD9 R5
    Тип видео: AVI

    Информация о видео: 656x352 (1.85:1), 23.976 fps, XviD ~ 865 kbps avg, 0.156 bit/pixel
    Информация о звуке 1: 48 kHz, Dolby МР3, 2 ch, 128 kbps, русский
    Информация о звуке 2: 48 kHz, Dolby МР3, 2 ch, 128 kbps, английский (отдельным файлом)
    Тип видео субтитров: SoftSub (srt)

    По поводу субтитров и звука: Английские субтитры взяты из исходника BDRemux 1080p, однако исправлены многочисленные орфографические ошибки, русские субтитры взяты оттуда же, но удалены все нецензурные слова (заменены на литературные выражения). Все остальные русские субтитры не от New-Team содержат откровенные матюки. Звук взят из лицензионного DVD9 R5, он по амплитуде и спектру существенно отличается от звука iTunes.

    Раздача от:
    MediaInfo

    Общее
    Полное имя : Vnutri.Lyuina.Devisa.2013.D.BDRip.745MB_New-Team_by_avproh.avi
    Формат : AVI
    Формат/Информация : Audio Video Interleave
    Размер файла : 750 Мбайт
    Продолжительность : 1 ч. 44 м.
    Общий поток : 1002 Кбит/сек
    Программа кодирования : VirtualDubModRus 1.5.10.2 (build 2542/release)
    Библиотека кодирования : VirtualDubMod build 2542/release

    Видео
    Идентификатор : 0
    Формат : MPEG-4 Visual
    Профиль формата : Advanced Simple@L5
    Параметр BVOP формата : 1
    Параметр QPel формата : Нет
    Параметр GMC формата : Без точки перехода
    Параметр матрицы формата : Выборочная
    Идентификатор кодека : XVID
    Идентификатор кодека/Подсказка : XviD
    Продолжительность : 1 ч. 44 м.
    Битрейт : 865 Кбит/сек
    Ширина : 656 пикселей
    Высота : 352 пикселя
    Соотношение сторон : 1,85:1
    Частота кадров : 23,976 кадра/сек
    Цветовое пространство : YUV
    Субдискретизация насыщенности : 4:2:0
    Битовая глубина : 8 бит
    Тип развёртки : Прогрессивная
    Метод сжатия : С потерями
    Бит/(Пиксели*Кадры) : 0.156
    Размер потока : 647 Мбайт (86%)
    Библиотека кодирования : XviD 73

    Аудио
    Идентификатор : 1
    Формат : MPEG Audio
    Версия формата : Version 1
    Профиль формата : Layer 3
    Режим : Joint stereo
    Расширение режима : MS Stereo
    Идентификатор кодека : 55
    Идентификатор кодека/Подсказка : MP3
    Продолжительность : 1 ч. 44 м.
    Вид битрейта : Постоянный
    Битрейт : 128 Кбит/сек
    Каналы : 2 канала
    Частота : 48,0 КГц
    Метод сжатия : С потерями
    Размер потока : 95,8 Мбайт (13%)
    Выравнивание : Соединение по промежуткам
    Продолжительность промежутка : 42 мс. (1,00 видеокадр)
    Время предзагрузки промежутка : 504 мс.

    Скриншоты для ознакомления:



    Залил: avproh
    Размер скачиваемого торрента: 846.05 MB (887148637 Bytes)

    Внутри Льюина Дэвиса / Inside Llewyn Davis (2013) BDRip от New-Team | D | лицензия скачать через торрент бесплатно
    загрузка...
    Рейтинг →
     (голосов: 1, оценка 4/5, голосовать можно 1 раз )

    Другие торренты по теме:

  • OST - Внутри Льюина Дэвиса / Inside Llewyn Davis (2013) MP3
  • Внутри Льюина Дэвиса скачать через торрент бесплатно
  • Внутри Льюина Дэвиса / Inside Llewyn Daviss (2013) DVDScr | Звук с TS скачать через торрент бесплатно
  • Внутри Льюина Дэвиса / Inside Llewyn Davis (2013) BDRip 720p от MediaClub скачать через торрент бесплатно
  • Внутри Льюина Дэвиса / Inside Llewyn Davis (2013) BDRip-AVC от MediaClub скачать через торрент бесплатно
  • Внутри Льюина Дэвиса / Inside Llewyn Davis (2013) DVD5 R5 от New-Team | D | лицензия скачать через торрент бесплатно
  • Внутри Льюина Дэвиса / Inside Llewyn Davis (2013) BDRemux 720p от New-Team | D | лицензия скачать через торрент бесплатно
  • Внутри Льюина Дэвиса / Inside Llewyn Davis (2013) BDRip 720p от New-Team | D | лицензия скачать через торрент бесплатно


    • Комментарии (0):

      Информация

      Информация

        Посетители, находящиеся в группе Гости, не могут оставлять комментарии в данной новости.

        ↓ Меню



        ↓ Опрос

        А Вы добавили сайт в закладки?
        Да
        Не


        Top 10 за месяц (Фильмы)