.
Авторизация | Регистрация
Хочешь лучшие торренты? Добавь свой email!
Добавить
» » 47 ронинов / 47 Ronin (2013) BDRemux 1080p | Чистый звук скачать через торрент бесплатно




    47 ронинов / 47 Ronin (2013) BDRemux 1080p | Чистый звук скачать через торрент бесплатно

    Опубликовал: Админ | Дата: 27-02-2015, 11:10 | Просмотров: 252

    Детально о кино
    Русское название: 47 ронинов / 47 Ronin
    Создали в: 2013
    Категория жанра: Фэнтези, Боевик, Приключения
    Главный режиссер: Карл Ринш
    Актеры: Киану Ривз, Хироюки Санада, Ко Шибасаки, Таданобу Асано, Мин Танака, Джин Аканиши, Масаёси Ханеда, Хироси Согабэ, Такато Йонемото, Хироси Ямада


    Сюжет:
    Таинственный странник, преданный всеми, проданный в рабство, избранный судьбой вершить месть, станет одним из 47 воинов, бросивших вызов смерти. Явившись из другого мира, он восстанет против темных сил, чтобы защитить свою запретную любовь.







    Тех. данные


    Время просмотра: 01:58:43
    Снималось в: США / H2F Entertainment, Mid Atlantic Films, Moving Picture Company (MPC)
    Перевод текста: Дублированный Чистый звук
    Язык: Русский, английский
    Вид субтитров: Вшитые отключаемые
    Язык субтитров: Английский (full, SDH, SDH-colored)

    Файл
    Тип видео: MKV
    Качество фильма: BDRemux 1080p
    Информация о видео: MPEG4_AVC/H.264, 1920x1080, ~32988 kbps, 0.668 bit/pixel
    Информация о звуке: Аудио 1: AC3 2.0, 256 kbps, 48 kHz Русский - дублированный; Аудио 2: DTS-HD MA 5.1, 3513 kbps, 48 kHz Английский - оригинал; Аудио 3: AC3 2.0, 192 kbps, 48 kHz Английский - комментарий
    MI:

    Полное имя : D:47.ронинов-47.Ronin.(2013).BDRemux.1080p.mkv
    Формат : Matroska
    Версия формата : Version 2
    Размер файла : 30,4 Гбайт
    Продолжительность : 1 ч. 58 м.
    Режим общего битрейта : Переменный
    Общий поток : 36,7 Мбит/сек
    Название фильма : 47 Ronin (2013)
    Дата кодирования : UTC 2014-03-22 10:49:15
    Программа кодирования : mkvmerge v5.7.0 (;The Whirlwind;) built on Aug 7 2012 14:11:40
    Библиотека кодирования : libebml v1.2.3 libmatroska v1.3.0
    Attachment : Yes

    Видео
    Идентификатор : 1
    Формат : AVC
    Формат/Информация : Advanced Video Codec
    Профиль формата : High@L4.1
    Параметр CABAC формата : Да
    Параметр ReFrames формата : 4 кадра
    Идентификатор кодека : V_MPEG4/ISO/AVC
    Продолжительность : 1 ч. 58 м.
    Вид битрейта : Переменный
    Битрейт : 33,2 Мбит/сек
    Максимальный битрейт : 38,0 Мбит/сек
    Ширина : 1920 пикселей
    Высота : 1080 пикселей
    Соотношение сторон : 16:9
    Режим частоты кадров : Постоянный
    Частота кадров : 23,976 кадра/сек
    Цветовое пространство : YUV
    Субдискретизация насыщенности : 4:2:0
    Битовая глубина : 8 бит
    Тип развёртки : Прогрессивная
    Бит/(Пиксели*Кадры) : 0.668
    Размер потока : 27,5 Гбайт (91%)
    Заголовок : 47.ронинов-47.Ronin.(2013).BDRemux.1080p
    Язык : English
    Default : Да
    Forced : Нет

    Аудио #1
    Идентификатор : 2
    Формат : AC-3
    Формат/Информация : Audio Coding 3
    Расширение режима : CM (complete main)
    Параметр Endianness формата : Big
    Идентификатор кодека : A_AC3
    Продолжительность : 1 ч. 58 м.
    Вид битрейта : Постоянный
    Битрейт : 256 Кбит/сек
    Каналы : 2 канала
    Расположение каналов : Front: L R
    Частота : 48,0 КГц
    Битовая глубина : 16 бит
    Метод сжатия : С потерями
    Размер потока : 217 Мбайт (1%)
    Заголовок : AC3 2.0 / 256 kbps / Dub
    Язык : Russian
    Default : Да
    Forced : Нет

    Аудио #2
    Идентификатор : 3
    Формат : DTS
    Формат/Информация : Digital Theater Systems
    Профиль формата : MA / Core
    Идентификатор кодека : A_DTS
    Продолжительность : 1 ч. 58 м.
    Вид битрейта : Переменный
    Битрейт : 2299 Кбит/сек / 1510 Кбит/сек
    Каналы : 6 каналов
    Расположение каналов : Front: L C R, Side: L R, LFE
    Частота : 48,0 КГц
    Битовая глубина : 24 бит
    Метод сжатия : Без потерь / Lossy
    Заголовок : DTS-HD MA 5.1 / 3513 kbps / Original
    Язык : English
    Default : Нет
    Forced : Нет

    Аудио #3
    Идентификатор : 4
    Формат : AC-3
    Формат/Информация : Audio Coding 3
    Профиль формата : Dolby Digital
    Расширение режима : CM (complete main)
    Параметр Endianness формата : Big
    Идентификатор кодека : A_AC3
    Продолжительность : 1 ч. 58 м.
    Вид битрейта : Постоянный
    Битрейт : 192 Кбит/сек
    Каналы : 2 канала
    Расположение каналов : Front: L R
    Частота : 48,0 КГц
    Битовая глубина : 16 бит
    Метод сжатия : С потерями
    Размер потока : 163 Мбайт (1%)
    Заголовок : AC3 2.0 / 192 kbps / Commentary
    Язык : English
    Default : Нет
    Forced : Нет

    Текст #1
    Идентификатор : 5
    Формат : UTF-8
    Идентификатор кодека : S_TEXT/UTF8
    Идентификатор кодека/Информация : UTF-8 Plain Text
    Заголовок : Full
    Язык : English
    Default : Нет
    Forced : Нет

    Текст #2
    Идентификатор : 6
    Формат : UTF-8
    Идентификатор кодека : S_TEXT/UTF8
    Идентификатор кодека/Информация : UTF-8 Plain Text
    Заголовок : SDH
    Язык : English
    Default : Нет
    Forced : Нет

    Текст #3
    Идентификатор : 7
    Формат : UTF-8
    Идентификатор кодека : S_TEXT/UTF8
    Идентификатор кодека/Информация : UTF-8 Plain Text
    Заголовок : SDH (Colored)
    Язык : English
    Default : Нет
    Forced : Нет

    Меню
    00:00:00.000 : en:Chapter 1
    00:04:27.558 : en:Chapter 2
    00:11:12.088 : en:Chapter 3
    00:16:27.820 : en:Chapter 4
    00:20:11.835 : en:Chapter 5
    00:26:52.319 : en:Chapter 6
    00:31:02.944 : en:Chapter 7
    00:36:10.626 : en:Chapter 8
    00:43:36.613 : en:Chapter 9
    00:50:14.511 : en:Chapter 10
    00:54:59.421 : en:Chapter 11
    00:59:54.048 : en:Chapter 12
    01:09:57.735 : en:Chapter 13
    01:13:59.017 : en:Chapter 14
    01:19:12.247 : en:Chapter 15
    01:24:17.385 : en:Chapter 16
    01:33:00.825 : en:Chapter 17
    01:38:55.554 : en:Chapter 18
    01:44:41.608 : en:Chapter 19
    01:48:38.303 : en:Chapter 20
    Скриншоты для ознакомления



    Размер скачиваемого торрента: 30.43 GB (32671757311 Bytes)

    47 ронинов / 47 Ronin (2013) BDRemux 1080p | Чистый звук скачать через торрент бесплатно
    загрузка...
    Рейтинг →
     (голосов: 1, оценка 3/5, голосовать можно 1 раз )

    Другие торренты по теме:

  • 47 ронинов / 47 Ronin (2013) HD 720p | L1 | Трейлер
  • OST - 47 Ронинов / 47 Ronin (2013) MP3 скачать через торрент бесплатно
  • 47 ронинов / 47 Ronin (2013) CAMRip
  • 47 ронинов / 47 Ronin (2013) TS скачать через торрент бесплатно
  • 47 ронинов / 47 Ronin (2013) TS *PROPER* скачать через торрент бесплатно
  • 47 ронинов / 47 Ronin (2013) WEBRip | Звук с TS скачать через торрент бесплатно
  • 47 ронинов / 47 Ronin (2013) WEBRip-AVC | Звук с TS *PROPER* скачать через торрент бесплатно
  • 47 ронинов / 47 Ronin (2013) DVDScr | Звук с TS


    • Комментарии (0):

      Информация

      Информация

        Посетители, находящиеся в группе Гости, не могут оставлять комментарии в данной новости.

        ↓ Меню



        ↓ Опрос

        А Вы добавили сайт в закладки?
        Да
        Не


        Top 10 за месяц (Фильмы)