.
Авторизация | Регистрация
Хочешь лучшие торренты? Добавь свой email!
Добавить
» » Кошмар на улице Вязов 7 / New Nightmare (1994) DVD9 | P скачать торрент бесплатно




    Кошмар на улице Вязов 7 / New Nightmare (1994) DVD9 | P скачать торрент бесплатно

    Опубликовал: Админ | Дата: 27-02-2015, 11:10 | Просмотров: 170



    Детально о кино
    Русское название: Кошмар на улице Вязов 7
    Русское название в мировом прокате: New Nightmare
    Создали в: 1994
    Категория жанра: ужасы, фэнтези, триллер, детектив
    Главный режиссер: Уэс Крэйвен
    Актеры: Джефф Дэвис, Хэзер Лэнгенкэмп, Мико Хьюз, Мэтт Уинстон, Роб ЛаБелль, Дэвид Ньюсом, Уэс Крэйвен, Марианн Маддалена, Гретхен Ёлер, Трэйси Миддендорф

    Сюжет фильма:
    На съёмках очередной серии фильма Кошмар на улице Вязов происходит несчастный случай: новая, технически совершенная перчатка Фредди убивает работников со спецэффектами и ранит Чейза Портера — мужа Хэзер Лэнгенкэмп, исполнительницы роли Нэнси. Сын Хэзер исчезает непонятным образом. Но вот Хэзер просыпается из-за землетрясения и понимает, что это был всего лишь сон. Однако её муж порезал пальцы именно так, как это случилось в её сне…




    Снималось в: США
    Киностудия: New Line Cinema
    Время просмотра: 112 мин. / 01:52
    Перевод текста: профессиональный (многоголосый, закадровый)

    Файл
    Кодек для видео: MPEG2
    Качество фильма: DVD9
    Информация о видео: PAL 16:9 (720x576@1024x576) VBR 6379 Kbps, 25.000 fps
    Информация о звуке 1: Dolby AC3, 6 ch, 48.0 KHz, 448 Kbps русский
    Информация о звуке 2: Dolby AC3, 6 ch, 48.0 KHz, 448 Kbps английский
    Субтитры: русские

    MediaInfo
    General
    Complete name : D:Koshmar_na_ulitse_Vyazov_7_DVD9VIDEO_TSVTS_03_1.VOB
    Format : MPEG-PS
    File size : 1 024 MiB
    Duration : 19mn 17s
    Overall bit rate mode : Variable
    Overall bit rate : 7 422 Kbps

    Video
    ID : 224 (0xE0)
    Format : MPEG Video
    Format version : Version 2
    Format profile : Main@Main
    Format settings, BVOP : Yes
    Format settings, Matrix : Custom
    Format settings, GOP : M=3, N=15
    Duration : 19mn 17s
    Bit rate mode : Variable
    Bit rate : 6 379 Kbps
    Maximum bit rate : 8 000 Kbps
    Width : 720 pixels
    Height : 576 pixels
    Display aspect ratio : 16:9
    Frame rate : 25.000 fps
    Standard : PAL
    Color space : YUV
    Chroma subsampling : 4:2:0
    Bit depth : 8 bits
    Scan type : Interlaced
    Scan order : Top Field First
    Compression mode : Lossy
    Bits/(Pixel*Frame) : 0.615
    Time code of first frame : 01:00:00:00
    Time code source : Group of pictures t_head
    Stream size : 880 MiB (86%)

    Audio #1
    ID : 189 (0xBD)-128 (0x80)
    Format : AC-3
    Format/Info : Audio Coding 3
    Mode extension : CM (complete main)
    Format settings, Endianness : Big
    Muxing mode : DVD-Video
    Duration : 19mn 17s
    Bit rate mode : Constant
    Bit rate : 448 Kbps
    Channel(s) : 6 channels
    Channel positions : Front: L C R, Side: L R, LFE
    Sampling rate : 48.0 KHz
    Bit depth : 16 bits
    Compression mode : Lossy
    Delay relative to video : -80ms
    Stream size : 61.8 MiB (6%)

    Audio #2
    ID : 189 (0xBD)-129 (0x81)
    Format : AC-3
    Format/Info : Audio Coding 3
    Mode extension : CM (complete main)
    Format settings, Endianness : Big
    Muxing mode : DVD-Video
    Duration : 19mn 17s
    Bit rate mode : Constant
    Bit rate : 448 Kbps
    Channel(s) : 6 channels
    Channel positions : Front: L C R, Side: L R, LFE
    Sampling rate : 48.0 KHz
    Bit depth : 16 bits
    Compression mode : Lossy
    Delay relative to video : -80ms
    Stream size : 61.8 MiB (6%)

    Text
    ID : 189 (0xBD)-32 (0x20)
    Format : RLE
    Format/Info : Run-length encoding
    Muxing mode : DVD-Video

    Menu

    Скриншоты для ознакомления

    Залил: carisha
    Размер скачиваемого торрента: 5.61 GB (6019366912 Bytes)

    Кошмар на улице Вязов 7 / New Nightmare (1994) DVD9 | P торрент скачать бесплатно
    загрузка...
    Рейтинг →
     (голосов: 1, оценка 4/5, голосовать можно 1 раз )

    Другие торренты по теме:

  • Кошмар на улице Вязов 7: Новый Кошмар / New Nightmare (1994) BDRip 1080p от Freeisland
  • Кошмар на улице Вязов 7: Новый Кошмар / New Nightmare (1994) HDRip от Scarabey | Р2
  • Кошмар на улице Вязов 7: Новый Кошмар / New Nightmare
  • Кошмар на улице Вязов / A Nightmare on Elm Street (1984) HDRip
  • Кошмар на улице Вязов 2: Месть Фредди / A Nightmare on Elm Street Part 2: Freddys Revenge (1985) DVDRip
  • Кошмар на улице Вязов 6: Фредди мертв / Freddys Dead: The Final Nightmare (1991) BDRip 1080p от Freeisland
  • Кошмар на улице Вязов 5: Дитя сна / A Nightmare on Elm Street: The Dream Child (1989) BDRip 1080p от Freeisland
  • Кошмар на улице Вязов 4: Повелитель сна / A Nightmare on Elm Street 4: The Dream Master (1988) BDRip 1080p от Freeisland


    • Комментарии (0):

      Информация

      Информация

        Посетители, находящиеся в группе Гости, не могут оставлять комментарии в данной новости.

        ↓ Меню



        ↓ Опрос

        А Вы добавили сайт в закладки?
        Да
        Не


        Top 10 за месяц (Фильмы)