.
Авторизация | Регистрация
Хочешь лучшие торренты? Добавь свой email!
Добавить
» » Огонь на поражение / Shoot to Kill (1988) HDTVRip от New-Team скачать торрент бесплатно




    Огонь на поражение / Shoot to Kill (1988) HDTVRip от New-Team скачать торрент бесплатно

    Опубликовал: Админ | Дата: 27-02-2015, 11:10 | Просмотров: 223


    Снималось в: США
    Создали в: Century Park Pictures, Silver Screen Partners III, Touchstone Pictures

    Категория жанра: боевик, триллер, драма, криминал, приключения
    Создали в: 1988
    Время просмотра: 1:49:37

    Перевод текста: Профессиональный (полное дублирование)
    Оригинальная аудиодорожка: нет
    Субтитры подготовлены: нет

    Главный режиссер: Роджер Споттисвуд / Roger Spottiswoode

    Актеры:
    Сидни Пуатье, Том Беренджер, Керсти Элли, Клэнси Браун, Ричард Мазур, Эндрю Робинсон, Кевин Скэннелл, Фредерик Коффин...

    Сюжет:
    Хозяин ювелирного магазина среди ночи в панике забирает бриллианты с неизвестной целью. Приехавшая на место ограбления полиция выясняет, что ювелир должен немедленно отдать драгоценности грабителю, захватившему его жену в заложники. Женщину спасти не удалось, да и преступнику удается уйти от агента ФБР Уоррена Стентина. Ниточка приводит его в леса в Северной Америке…




    Исходник: HDTVRip 720p
    Тип релиза: HDTVRip
    Контейнер: AVI

    Информация о видео: 624x352 (16:9), 23,976 fps, XviD ~ 816 kbps avg, 0.155 bit/pixel
    Информация о звуке: 48 kHz, MP3 2.0, 128 kbps

    Раздача от:
    MediaInfo

    Общее
    Полное имя : Ogon.na.porazhenie.1988.HDTVRip-745_New-team_by_AVP_Studio.avi
    Формат : AVI
    Формат/Информация : Audio Video Interleave
    Размер файла : 746 Мбайт
    Продолжительность : 1 ч. 49 м.
    Общий поток : 954 Кбит/сек
    Программа кодирования : VirtualDubModRus 1.5.10.2 (build 2542/release)
    Библиотека кодирования : VirtualDubMod build 2542/release

    Видео
    Идентификатор : 0
    Формат : MPEG-4 Visual
    Профиль формата : Advanced Simple@L5
    Параметр BVOP формата : 1
    Параметр QPel формата : Нет
    Параметр GMC формата : Без точки перехода
    Параметр матрицы формата : Выборочная
    Идентификатор кодека : XVID
    Идентификатор кодека/Подсказка : XviD
    Продолжительность : 1 ч. 49 м.
    Битрейт : 816 Кбит/сек
    Ширина : 624 пикселя
    Высота : 352 пикселя
    Соотношение сторон : 16:9
    Частота кадров : 23,976 кадра/сек
    Цветовое пространство : YUV
    Субдискретизация насыщенности : 4:2:0
    Битовая глубина : 8 бит
    Тип развёртки : Прогрессивная
    Метод сжатия : С потерями
    Бит/(Пиксели*Кадры) : 0.155
    Размер потока : 639 Мбайт (86%)
    Библиотека кодирования : XviD 73

    Аудио
    Идентификатор : 1
    Формат : MPEG Audio
    Версия формата : Version 1
    Профиль формата : Layer 3
    Идентификатор кодека : 55
    Идентификатор кодека/Подсказка : MP3
    Продолжительность : 1 ч. 49 м.
    Вид битрейта : Постоянный
    Битрейт : 128 Кбит/сек
    Каналы : 2 канала
    Частота : 48,0 КГц
    Метод сжатия : С потерями
    Размер потока : 100 Мбайт (13%)
    Выравнивание : Соединение по промежуткам
    Продолжительность промежутка : 42 мс. (1,00 видеокадр)
    Время предзагрузки промежутка : 504 мс.
    Библиотека кодирования : LAME3.99r
    Залил: AVPStudio
    Размер скачиваемого торрента: 745.91 MB (782143488 Bytes)


    Огонь на поражение / Shoot to Kill (1988) HDTVRip от New-Team торрент скачать бесплатно
    загрузка...
    Рейтинг →
     (голосов: 1, оценка 3/5, голосовать можно 1 раз )

    Другие торренты по теме:

  • Огонь на поражение (Стреляй на поражение) / Shoot to Kill (Deadly Pursuit) / 1988 / АП (Живов) / HDTVRip
  • Спецназ. Огонь на поражение / Special Forces - Nemesis Strike (2005) PC by MassTorr
  • Огонь на поражение / Shoot to Kill (1988) HDTVRip-AVC от New-Team скачать через торрент бесплатно
  • Огонь на поражение / Shoot to Kill (1988) DVDRip от NovaLan скачать через торрент бесплатно
  • Огонь на поражение / Shoot to Kill (1988) HDTVRip-AVC | D, 2хА от New-Team скачать через торрент бесплатно
  • Вызываем огонь на себя (1-4 серии из 4) / 1963 / РУ / DVDRip
  • Огонь на поражение / Shoot to Kill (1988) HDTVRip от New-Team
  • Огонь на поражение / Shoot to Kill (1988) HDTVRip-AVC от New-Team


    • Комментарии (0):

      Информация

      Информация

        Посетители, находящиеся в группе Гости, не могут оставлять комментарии в данной новости.

        ↓ Меню



        ↓ Опрос

        А Вы добавили сайт в закладки?
        Да
        Не


        Top 10 за месяц (Фильмы)