.
Авторизация | Регистрация
Хочешь лучшие торренты? Добавь свой email!
Добавить
» » Игры разума / A Beautiful Mind (2001) BDRip-AVC | iPhone | D скачать через торрент бесплатно




    Игры разума / A Beautiful Mind (2001) BDRip-AVC | iPhone | D скачать через торрент бесплатно

    Опубликовал: Админ | Дата: 27-02-2015, 11:10 | Просмотров: 308



    Игры разума / A Beautiful Mind (2001) BDRip-AVC | iPhone | D

    Русское название: Игры разума
    Русское название в мировом прокате: A Beautiful Mind
    Создали в: 2001
    Категория жанра: драма, биография
    Главный режиссер: Рон Ховард
    Актеры: Рассел Кроу, Эд Харрис, Дженнифер Коннелли, Кристофер Пламмер, Пол Беттани, Адам Голдберг, Джош Лукас, Энтони Рэпп, Джейсон Грей-Стенфорд, Джадд Хёрш

    Сюжет фильма:
    От всемирной известности до греховных глубин — все это познал на своей шкуре Джон Форбс Нэш-младший. Математический гений, он на заре своей карьеры сделал титаническую работу в области теории игр, которая практически перевернула этот раздел математики и практически принесла ему международную известность. Однако буквально в то же время заносчивый и пользующийся успехом у женщин Нэш получает удар, который переворачивает уже его собственную жизнь — врачи ставят ему диагноз параноидная шизофрения…


    Снималось в: США
    Киностудия: Universal Pictures
    Время просмотра: 02:15:19
    Перевод текста: Русский дублированный

    Файл
    Кодек для видео: H.264
    Качество фильма: BDRip-AVC 480p
    Информация о видео: 640x462@851x462 (1.85:1) at 23.976 fps, AVC at 4900 kbps
    Информация о звуке:
    1: АAС 2.0 140 kbps - Русский дублированный
    2: АAС 2.0 140 kbps - Английский
    Субтитры: Отсутствуют

    MI

    General
    Complete name : C:CREATE480outA Beautiful Mind.2001 (SD).m4v
    Format : MPEG-4
    Codec ID : M4V
    File size : 1.60 GiB
    Duration : 2h 15mn
    Overall bit rate mode : Variable
    Overall bit rate : 1 690 Kbps
    Movie name : Игры разума
    Performer : Ron Howard
    Recorded date : UTC 2001-12-13 08:00:00
    Encoded date : UTC 2014-03-20 06:54:57
    Tagged date : UTC 2014-03-20 07:34:30
    Copyright : © 2001 Universal Studios. All Rights Reserved.
    Cover : Yes
    Comment : If reality has ganged up on you, nothing is safe anymore...
    iTunEXTC : mpaa|PG-13|300|

    sonm : A Beautiful Mind
    desc : От всемирной известности до греховных глубин - все это познал на своей шкуре Джон Форбс Нэш-младший. Математический гений, он на заре своей карьеры сделал титаническую работу в области теории игр, которая перевернула этот раздел математики.
    ldes : От всемирной известности до греховных глубин - все это познал на своей шкуре Джон Форбс Нэш-младший. Математический гений, он на заре своей карьеры сделал титаническую работу в области теории игр, которая перевернула этот раздел математики и практически принесла ему международную известность. Однако буквально в то же время заносчивый и пользующийся успехом у женщин Нэш получает удар судьбы, который переворачивает уже его собственную жизнь.
    hdvd : 0
    stik : 0
    cnID : 324270794
    xid : Apple:vendor_id:2001-530

    Video
    ID : 1
    Format : AVC
    Format/Info : Advanced Video Codec
    Format profile : Baseline@L3.0
    Format settings, CABAC : No
    Format settings, ReFrames : 2 frames
    Format settings, GOP : N=1
    Codec ID : avc1
    Codec ID/Info : Advanced Video Coding
    Duration : 2h 15mn
    Bit rate : 1 399 Kbps
    Maximum bit rate : 6 824 Kbps
    Width : 640 pixels
    Height : 462 pixels
    Display aspect ratio : 1.85:1
    Frame rate mode : Constant
    Frame rate : 23.976 fps
    Color space : YUV
    Chroma subsampling : 4:2:0
    Bit depth : 8 bits
    Scan type : Progressive
    Bits/(Pixel*Frame) : 0.197
    Stream size : 1.32 GiB (83%)
    Language : English
    Encoded date : UTC 2014-03-20 06:54:57
    Tagged date : UTC 2014-03-20 06:55:49
    Matrix coefficients : BT.709

    Audio #1
    ID : 2
    Format : AAC
    Format/Info : Advanced Audio Codec
    Format profile : LC
    Codec ID : 40
    Duration : 2h 15mn
    Bit rate mode : Variable
    Bit rate : 144 Kbps
    Maximum bit rate : 168 Kbps
    Channel(s) : 2 channels
    Channel positions : Front: L R
    Sampling rate : 48.0 KHz
    Compression mode : Lossy
    Stream size : 137 MiB (8%)
    Title : Dub
    Language : Russian
    Encoded date : UTC 2014-03-20 06:45:28
    Tagged date : UTC 2014-03-20 06:55:49

    Audio #2
    ID : 3
    Format : AAC
    Format/Info : Advanced Audio Codec
    Format profile : LC
    Codec ID : 40
    Duration : 2h 15mn
    Bit rate mode : Variable
    Bit rate : 140 Kbps
    Maximum bit rate : 166 Kbps
    Channel(s) : 2 channels
    Channel positions : Front: L R
    Sampling rate : 48.0 KHz
    Compression mode : Lossy
    Stream size : 135 MiB (8%)
    Title : Original
    Language : English
    Encoded date : UTC 2014-03-20 06:51:53
    Tagged date : UTC 2014-03-20 06:55:49

    iTunes tags

    Sort Name: A Beautiful Mind
    XID: Apple:vendor_id:2001-530
    Content ID: 324270794
    Copyright: © 2001 Universal Studios. All Rights Reserved.
    ScreenWriters: Акива Голдсман, Сильвия Насар
    Producers: Брайан Грейзер, Рон Ховард, Тодд Халлоуэлл
    Director: Рон Ховард
    Cast: Рассел Кроу, Эд Харрис, Дженнифер Коннелли, Кристофер Пламмер, Пол Беттани, Адам Голдберг, Джош Лукас, Энтони Рэпп, Джейсон Грей-Стенфорд, Джадд Хёрш
    Rating: PG-13
    Long Deion: От всемирной известности до греховных глубин - все это познал на своей шкуре Джон Форбс Нэш-младший. Математический гений, он на заре своей карьеры сделал титаническую работу в области теории игр, которая перевернула этот раздел математики и практически принесла ему международную известность. Однако буквально в то же время заносчивый и пользующийся успехом у женщин Нэш получает удар судьбы, который переворачивает уже его собственную жизнь.
    Deion: От всемирной известности до греховных глубин - все это познал на своей шкуре Джон Форбс Нэш-младший. Математический гений, он на заре своей карьеры сделал титаническую работу в области теории игр, которая перевернула этот раздел математики и практиче
    Release Date: 2001-12-13T08:00:00Z
    Artist: Ron Howard
    Name: Игры разума
    Comments: If reality has ganged up on you, nothing is safe anymore...
    x264

    x264 info: frame I:2980 Avg QP:18.62 size: 19782
    x264 info: frame P:191684 Avg QP:21.28 size: 7102
    x264 info: mb I I16..4: 53.7% 0.0% 46.3%
    x264 info: mb P I16..4: 1.2% 0.0% 0.9% P16..4: 54.5% 15.3% 8.1% 1.2% 0.5% skip:18.4%
    x264 info: coded y,uvDC,uvAC intra: 41.6% 52.2% 22.0% inter: 31.1% 31.2% 7.6%
    x264 info: i16 v,h,dc,p: 60% 12% 7% 21%
    x264 info: i4 v,h,dc,ddl,ddr,vr,hd,vl,hu: 32% 14% 14% 6% 7% 9% 6% 7% 4%
    x264 info: i8c dc,h,v,p: 64% 11% 20% 4%
    x264 info: ref P L0: 74.1% 25.9%
    x264 info: kb/s:1399.37




    Залил: gekka
    Размер скачиваемого торрента: 1.60 GB (1715390824 Bytes)

    Игры разума / A Beautiful Mind (2001) BDRip-AVC | iPhone | D скачать через торрент бесплатно
    загрузка...
    Рейтинг →
     (голосов: 1, оценка 4/5, голосовать можно 1 раз )

    Другие торренты по теме:

  • Игры разума №4. Игры со спичками (2015) PDF
  • Игры Разума (2013) Android
  • Игры разума / A Beautiful Mind (2001) HDRip от R.G.RealMT | КПК | D
  • Игры разума / A Beautiful Mind (2001) BDRip-AVC от 0ptimus | D, P, A
  • Игры разума / A Beautiful Mind (2001) BDRip 720p от leonardo 59 Scarabey
  • Игры разума / A Beautiful Mind (2001) HDRip-AVC | iPhone скачать через торрент бесплатно
  • Игры разума / A Beautiful Mind (2001) BDRip-AVC | D
  • Игры разума №2. Средневековые головоломки (2015) PDF


    • Комментарии (0):

      Информация

      Информация

        Посетители, находящиеся в группе Гости, не могут оставлять комментарии в данной новости.

        ↓ Меню



        ↓ Опрос

        А Вы добавили сайт в закладки?
        Да
        Не


        Top 10 за месяц (Фильмы)