.
Авторизация | Регистрация
Хочешь лучшие торренты? Добавь свой email!
Добавить
» » Стукач / Snitch (2013) BDRip-AVC | D, A скачать через торрент бесплатно




    Стукач / Snitch (2013) BDRip-AVC | D, A скачать через торрент бесплатно

    Опубликовал: Админ | Дата: 27-02-2015, 11:10 | Просмотров: 302



    Создали в: 2013
    Создали в: США, ОАЭ / Summit Entertainment, Exclusive Media Group, Participant Media
    Категория жанра: Боевик, триллер, драма
    Время просмотра: 01:51:52
    Перевод текста: Дублированный, Авторский (одноголосый закадровый) А.Ю.Гаврилов
    Субтитры: нет

    Главный режиссер: Рик Роман Во

    Актеры: Дуэйн Джонсон, Барри Пеппер, Джон Бернтал, Сьюзен Сарандон, Майкл К. Уильямс, Рафи Гаврон, Мелина Канакаредес, Надин Веласкес, Бенджамин Брэтт, Лела Лорен

    Сюжет фильма: Ради спасения сына, которому грозит срок за продажу наркотиков, отец идет на сделку с полицией. Он должен внедриться в самое сердце наркомафии.


    Бюджет: $15 000 000



    Качество фильма: BDRip-AVC
    Тип видео: MKV
    Информация о видео: MPEG-4 AVC, 2284 Кбит/с, 1024х424
    Информация о звуке 1: АС3, 6 ch, 384 Кбит/с - дубляж
    Информация о звуке 2: АС3, 6 ch, 448 Кбит/с - А.Гаврилов
    Информация о звуке 3: АС3, 6 ch, 448 Кбит/с - оригинал

    MediaInfo
    Формат : Matroska
    Версия формата : Version 1
    Размер файла : 2,84 Гбайт
    Продолжительность : 1 ч. 51 м.
    Общий поток : 3636 Кбит/сек
    Дата кодирования : UTC 2013-09-28 01:26:43
    Программа кодирования : mkvmerge v2.1.0 (;Another Place To Fall;) built on Aug 19 2007 13:40:07
    Библиотека кодирования : libebml v0.7.7 libmatroska v0.8.1

    Видео
    Идентификатор : 1
    Формат : AVC
    Формат/Информация : Advanced Video Codec
    Профиль формата : High@L4.1
    Параметр CABAC формата : Да
    Параметр ReFrames формата : 8 кадров
    Идентификатор кодека : V_MPEG4/ISO/AVC
    Продолжительность : 1 ч. 51 м.
    Битрейт : 2284 Кбит/сек
    Номинальный битрейт : 2682 Кбит/сек
    Ширина : 1024 пикселя
    Высота : 424 пикселя
    Соотношение сторон : 2,40:1
    Режим частоты кадров : Постоянный
    Частота кадров : 23,976 кадра/сек
    Цветовое пространство : YUV
    Субдискретизация насыщенности : 4:2:0
    Битовая глубина : 8 бит
    Тип развёртки : Прогрессивная
    Бит/(Пиксели*Кадры) : 0.219
    Размер потока : 1,78 Гбайт (63%)
    Библиотека кодирования : x264 core 115 r1937 aa21558
    Настройки программы : cabac=1 / ref=8 / deblock=1:-3:-3 / analyse=0x3:0x113 / me=umh / subme=8 / psy=1 / psy_rd=1.00:0.10 / mixed_ref=0 / me_range=32 / chroma_me=1 / trellis=2 / 8x8dct=1 / cqm=0 / deadzone=21,11 / fast_pskip=1 / chroma_qp_offset=-3 / threads=6 / sliced_threads=0 / nr=0 / decimate=1 / interlaced=0 / bluray_compat=0 / constrained_intra=0 / bframes=8 / b_pyramid=2 / b_adapt=2 / b_bias=0 / direct=3 / weightb=1 / open_gop=0 / weightp=0 / keyint=240 / keyint_min=23 / scenecut=40 / intra_refresh=0 / rc_lookahead=30 / rc=2pass / mbtree=1 / bitrate=2682 / ratetol=1.0 / qcomp=0.60 / qpmin=15 / qpmax=47 / qpstep=3 / cplxblur=20.0 / qblur=0.5 / ip_ratio=1.40 / aq=1:1.10
    Язык : English
    Default : Да
    Forced : Нет

    Аудио #1
    Идентификатор : 2
    Формат : AC-3
    Формат/Информация : Audio Coding 3
    Расширение режима : CM (complete main)
    Параметр Endianness формата : Big
    Идентификатор кодека : A_AC3
    Продолжительность : 1 ч. 51 м.
    Вид битрейта : Постоянный
    Битрейт : 384 Кбит/сек
    Каналы : 6 каналов
    Расположение каналов : Front: L C R, Side: L R, LFE
    Частота : 48,0 КГц
    Битовая глубина : 16 бит
    Метод сжатия : С потерями
    Размер потока : 307 Мбайт (11%)
    Заголовок : Дублированный
    Язык : Russian
    Default : Да
    Forced : Нет

    Аудио #2
    Идентификатор : 3
    Формат : AC-3
    Формат/Информация : Audio Coding 3
    Расширение режима : CM (complete main)
    Параметр Endianness формата : Big
    Идентификатор кодека : A_AC3
    Продолжительность : 1 ч. 51 м.
    Вид битрейта : Постоянный
    Битрейт : 448 Кбит/сек
    Каналы : 6 каналов
    Расположение каналов : Front: L C R, Side: L R, LFE
    Частота : 48,0 КГц
    Битовая глубина : 16 бит
    Метод сжатия : С потерями
    Размер потока : 359 Мбайт (12%)
    Заголовок : Гаврилов
    Язык : Russian
    Default : Нет
    Forced : Нет

    Аудио #3
    Идентификатор : 4
    Формат : AC-3
    Формат/Информация : Audio Coding 3
    Расширение режима : CM (complete main)
    Параметр Endianness формата : Big
    Идентификатор кодека : A_AC3
    Продолжительность : 1 ч. 51 м.
    Вид битрейта : Постоянный
    Битрейт : 448 Кбит/сек
    Каналы : 6 каналов
    Расположение каналов : Front: L C R, Side: L R, LFE
    Частота : 48,0 КГц
    Битовая глубина : 16 бит
    Метод сжатия : С потерями
    Размер потока : 359 Мбайт (12%)
    Заголовок : Оригинал
    Язык : English
    Default : Нет
    Forced : Нет

    Текст #1
    Идентификатор : 5
    Формат : UTF-8
    Идентификатор кодека : S_TEXT/UTF8
    Идентификатор кодека/Информация : UTF-8 Plain Text
    Заголовок : Русские
    Язык : Russian
    Default : Да
    Forced : Нет

    Текст #2
    Идентификатор : 6
    Формат : UTF-8
    Идентификатор кодека : S_TEXT/UTF8
    Идентификатор кодека/Информация : UTF-8 Plain Text
    Заголовок : Английские
    Язык : English
    Default : Нет
    Forced : Нет

    Меню
    00:00:00.000 : en:00:00:00.000
    00:06:18.086 : en:00:06:18.086
    00:14:02.717 : en:00:14:02.717
    00:21:29.747 : en:00:21:29.747
    00:29:44.700 : en:00:29:44.700
    00:34:28.984 : en:00:34:28.984
    00:42:36.179 : en:00:42:36.179
    00:49:18.831 : en:00:49:18.831
    00:56:31.638 : en:00:56:31.638
    01:00:53.108 : en:01:00:53.108
    01:10:01.572 : en:01:10:01.572
    01:18:55.272 : en:01:18:55.272
    01:24:05.374 : en:01:24:05.374
    01:31:21.559 : en:01:31:21.559
    01:38:40.540 : en:01:38:40.540
    01:45:56.600 : en:01:45:56.600
    Спасибо!
    За релиз большое спасибо Consul
    За перевод А.Гаврилова большое спасибо пользователям форума: forum.hdtracker.org: shitman82, rydanes, Schmulke, kinobbk, SavineX, Xerman13, Brown15, karantin66, Pain_70, Hattori Hanzo, foxlight, _MyxAmoP_, chefchef, vadamk, Jiraya87, eyrobot, dark1982, dunhill200, Chistobaev, lexal, Vimann, Guyver, nimph, carter64, Role, -Джосс-, Letyoha3, Loki, Диммон, milocerd0v, fly32, TvarYuri, GaryH, audiolubitel, Tio, denis_mgn_1987
    Скриншоты для ознакомления

    Размер скачиваемого торрента: 2.84 GB (3051372036 Bytes)

    Стукач / Snitch (2013) BDRip-AVC | D, A скачать через торрент бесплатно
    загрузка...
    Рейтинг →
     (голосов: 1, оценка 4/5, голосовать можно 1 раз )

    Другие торренты по теме:

  • Стукач / Snitch (2013) HDTVRip 1080p | Трейлер
  • OST - Стукач / Snitch (2013) MP3
  • Стукач / Snitch (2013) BDRip 1080p от Leonardo and Scarabey | US Transfer | Лицензия
  • Стукач / Snitch (2013) HDRip | Гаврилов скачать через торрент бесплатно
  • Стукач / Snitch (2013) BDRip-AVC от HELLYWOOD | Лицензия скачать через торрент бесплатно
  • Стукач / The Hit (1984) BDRip-AVC | P, А
  • Стукач / The Hit (1984) BDRip 1080p | P, А
  • Стукач / The Hit (1984) BDRip 720p | P, А


    • Комментарии (0):

      Информация

      Информация

        Посетители, находящиеся в группе Гости, не могут оставлять комментарии в данной новости.

        ↓ Меню



        ↓ Опрос

        А Вы добавили сайт в закладки?
        Да
        Не


        Top 10 за месяц (Фильмы)