.
Авторизация | Регистрация
Хочешь лучшие торренты? Добавь свой email!
Добавить
» » 47 ронинов / 47 Ronin (2013) BDRip 1080p от HYPERHD | Звук с TS скачать через торрент бесплатно




    47 ронинов / 47 Ronin (2013) BDRip 1080p от HYPERHD | Звук с TS скачать через торрент бесплатно

    Опубликовал: Админ | Дата: 27-02-2015, 11:10 | Просмотров: 328



    Снималось в: США
    Категория жанра: фэнтези, боевик, приключения
    Создали в: 2013
    Время просмотра: 01:58:43
    Озвучка: Дубляж - TS
    Главный режиссёр: Карл Ринш

    Сюжет: Таинственный странник, преданный всеми, проданный в рабство, избранный судьбой вершить месть, станет одним из 47 воинов, бросивших вызов смерти. Явившись из другого мира, он восстанет против темных сил, чтобы защитить свою запретную любовь.

    Актеры: Киану Ривз, Хироюки Санада, Ко Шибасаки, Таданобу Асано, Мин Танака, Джин Аканиши, Масаёси Ханеда, Хироси Согабэ, Такато Йонемото, Хироси Ямада

    Релиз подготовил:
    Качество фильма: BDRip 1080p
    Контейнер: MKV
    Информация о видео: MPEG-4 AVC / 9032 kbps / 1920x800 / 23,976 fps / 2.40:1
    Информация о звуке 1: Russian / 192 / 2.0 / 48 kHz / AC3 - Dub TS
    Информация о звуке 2: English / 1536 kbps / 5.1 / 48 kHz / DTS - Original
    Информация о звуке 3: English / 640 kpbs / 5.1 / 48 kHz / AC3 - Original
    Субтитры: нет
    Чаптеры: есть
    Семпл



    Скриншоты для ознакомления

    МедиаИнфо
    General
    Unique ID : 192990847265125798700236398688528172853 (0x9130AF679126905FB48A732E00470735)
    Complete name : D:47 Ronin 2013 BDRip 1080p HYPERHD.mkv
    Format : Matroska
    Format version : Version 4 / Version 2
    File size : 9.43 GiB
    Duration : 1h 58mn
    Overall bit rate : 11.4 Mbps
    Movie name : 47 Ronin 2013 BDRip 1080p HYPERHD
    Encoded date : UTC 2014-03-20 12:26:05
    Writing application : mkvmerge v6.8.0 (;Theme for Great Cities;) 64bit built on Mar 2 2014 21:34:26
    Writing library : libebml v1.3.0 libmatroska v1.4.1
    Attachment : Yes

    Video
    ID : 1
    Format : AVC
    Format/Info : Advanced Video Codec
    Format profile : High@L4.1
    Format settings, CABAC : Yes
    Format settings, ReFrames : 5 frames
    Codec ID : V_MPEG4/ISO/AVC
    Duration : 1h 58mn
    Bit rate : 9 032 Kbps
    Width : 1 920 pixels
    Height : 800 pixels
    Display aspect ratio : 2.40:1
    Frame rate mode : Constant
    Frame rate : 23.976 fps
    Color space : YUV
    Chroma subsampling : 4:2:0
    Bit depth : 8 bits
    Scan type : Progressive
    Bits/(Pixel*Frame) : 0.245
    Stream size : 7.30 GiB (77%)
    Title : 47 Ronin 2013 BDRip 1080p HYPERHD
    Writing library : x264 core 140 r2377 1ca7bb9
    Encoding settings : cabac=1 / ref=5 / deblock=1:0:0 / analyse=0x3:0x133 / me=umh / subme=7 / psy=1 / psy_rd=1.00:0.00 / mixed_ref=1 / me_range=16 / chroma_me=1 / trellis=1 / 8x8dct=1 / cqm=0 / deadzone=21,11 / fast_pskip=0 / chroma_qp_offset=-2 / threads=18 / lookahead_threads=3 / sliced_threads=0 / nr=0 / decimate=1 / interlaced=0 / bluray_compat=0 / constrained_intra=0 / bframes=3 / b_pyramid=2 / b_adapt=1 / b_bias=0 / direct=1 / weightb=1 / open_gop=0 / weightp=2 / keyint=250 / keyint_min=23 / scenecut=40 / intra_refresh=0 / rc_lookahead=40 / rc=2pass / mbtree=1 / bitrate=9032 / ratetol=1.0 / qcomp=0.60 / qpmin=0 / qpmax=69 / qpstep=4 / cplxblur=20.0 / qblur=0.5 / ip_ratio=1.40 / aq=1:1.00
    Language : English
    Default : Yes
    Forced : No

    Audio #1
    ID : 2
    Format : AC-3
    Format/Info : Audio Coding 3
    Mode extension : CM (complete main)
    Format settings, Endianness : Big
    Codec ID : A_AC3
    Duration : 1h 58mn
    Bit rate mode : Constant
    Bit rate : 192 Kbps
    Channel count : 2 channels
    Channel positions : Front: L R
    Sampling rate : 48.0 KHz
    Bit depth : 16 bits
    Compression mode : Lossy
    Stream size : 163 MiB (2%)
    Title : Dub TS
    Language : Russian
    Default : Yes
    Forced : No

    Audio #2
    ID : 3
    Format : DTS
    Format/Info : Digital Theater Systems
    Mode : 16
    Format settings, Endianness : Big
    Codec ID : A_DTS
    Duration : 1h 58mn
    Bit rate mode : Constant
    Bit rate : 1 509 Kbps
    Channel count : 6 channels
    Channel positions : Front: L C R, Side: L R, LFE
    Sampling rate : 48.0 KHz
    Bit depth : 24 bits
    Compression mode : Lossy
    Stream size : 1.25 GiB (13%)
    Title : Original
    Language : English
    Default : No
    Forced : No

    Audio #3
    ID : 4
    Format : AC-3
    Format/Info : Audio Coding 3
    Mode extension : CM (complete main)
    Format settings, Endianness : Big
    Codec ID : A_AC3
    Duration : 1h 58mn
    Bit rate mode : Constant
    Bit rate : 640 Kbps
    Channel count : 6 channels
    Channel positions : Front: L C R, Side: L R, LFE
    Sampling rate : 48.0 KHz
    Bit depth : 16 bits
    Compression mode : Lossy
    Stream size : 543 MiB (6%)
    Title : Original
    Language : English
    Default : No
    Forced : No

    Menu
    00:00:00.000 : en:00:00:00.000
    00:04:27.559 : en:00:04:27.559
    00:11:12.088 : en:00:11:12.088
    00:16:27.820 : en:00:16:27.820
    00:20:11.836 : en:00:20:11.836
    00:26:52.319 : en:00:26:52.319
    00:31:02.944 : en:00:31:02.944
    00:36:10.627 : en:00:36:10.627
    00:43:36.614 : en:00:43:36.614
    00:50:14.511 : en:00:50:14.511
    00:54:59.421 : en:00:54:59.421
    00:59:54.049 : en:00:59:54.049
    01:09:57.735 : en:01:09:57.735
    01:13:59.018 : en:01:13:59.018
    01:19:12.247 : en:01:19:12.247
    01:24:17.386 : en:01:24:17.386
    01:33:00.825 : en:01:33:00.825
    01:38:55.555 : en:01:38:55.555
    01:44:41.609 : en:01:44:41.609
    01:48:38.303 : en:01:48:38.303

    Размер скачиваемого торрента: 9.43 GB (10126347844 Bytes)

    47 ронинов / 47 Ronin (2013) BDRip 1080p от HYPERHD | Звук с TS скачать через торрент бесплатно
    загрузка...
    Рейтинг →
     (голосов: 1, оценка 4/5, голосовать можно 1 раз )

    Другие торренты по теме:

  • 47 ронинов / 47 Ronin (2013) HD 720p | L1 | Трейлер
  • OST - 47 Ронинов / 47 Ronin (2013) MP3 скачать через торрент бесплатно
  • 47 ронинов / 47 Ronin (2013) CAMRip
  • 47 ронинов / 47 Ronin (2013) TS скачать через торрент бесплатно
  • 47 ронинов / 47 Ronin (2013) TS *PROPER* скачать через торрент бесплатно
  • 47 ронинов / 47 Ronin (2013) WEBRip | Звук с TS скачать через торрент бесплатно
  • 47 ронинов / 47 Ronin (2013) WEBRip-AVC | Звук с TS *PROPER* скачать через торрент бесплатно
  • 47 ронинов / 47 Ronin (2013) DVDScr | Звук с TS


    • Комментарии (0):

      Информация

      Информация

        Посетители, находящиеся в группе Гости, не могут оставлять комментарии в данной новости.

        ↓ Меню



        ↓ Опрос

        А Вы добавили сайт в закладки?
        Да
        Не


        Top 10 за месяц (Фильмы)