.
Авторизация | Регистрация
Хочешь лучшие торренты? Добавь свой email!
Добавить
» » Кошмар на улице Вязов 5: Дитя сна / A Nightmare on Elm Street: The Dream Child (1989) DVD5 | P скачать торрент бесплатно




    Кошмар на улице Вязов 5: Дитя сна / A Nightmare on Elm Street: The Dream Child (1989) DVD5 | P скачать торрент бесплатно

    Опубликовал: Админ | Дата: 27-02-2015, 11:10 | Просмотров: 253



    Детально о кино
    Русское название: Кошмар на улице Вязов 5: Дитя сна
    Русское название в мировом прокате: A Nightmare on Elm Street: The Dream Child
    Создали в: 1989
    Категория жанра: ужасы, триллер
    Главный режиссер: Стивен Хопкинс
    Актеры: Роберт Инглунд, Лиза Уилкокс, Келли Джо Минтер, Дэнни Хэссел, Эрика Андерсон, Николас Меле, Джо Сили, Вэлори Армстронг, Барр ДеБеннинг, Кларенс Фелдер

    Сюжет фильма:
    Неистребимый детоубийца, который в пятой части даже объявляет себя Супер-Фредди, исхитряется возродиться в ребенке, находящемся в утробе матери. Единственный шанс спасти ребенка — найти незахороненный труп монашки Аманды Крюгер, породившей на свет такое чудовище как Фредди, чтобы его уничтожить.




    Снималось в: США
    Киностудия: Heron Communications, New Line Cinema, Smart Egg Pictures
    Время просмотра: 89 мин. / 01:29
    Перевод текста: профессиональный (многоголосый, закадровый)

    Файл
    Кодек для видео: MPEG2
    Качество фильма: DVD5
    Информация о видео: PAL 16:9 (720x576@1024x576) VBR 5423 Kbps, 25.000 fps
    Информация о звуке: Dolby AC3, 6 ch, 48.0 KHz, 448 Kbps
    Субтитры: русские

    MediaInfo
    General
    Complete name : D:Koshmar_na_ulitse_Vyazov_5_Ditya_sna_DVD5VIDEO_TSVTS_03_1.VOB
    Format : MPEG-PS
    File size : 1 024 MiB
    Duration : 22mn 12s
    Overall bit rate mode : Variable
    Overall bit rate : 6 447 Kbps

    Video
    ID : 224 (0xE0)
    Format : MPEG Video
    Format version : Version 2
    Format profile : Main@Main
    Format settings, BVOP : Yes
    Format settings, Matrix : Custom
    Format settings, GOP : M=3, N=15
    Duration : 22mn 12s
    Bit rate mode : Variable
    Bit rate : 5 423 Kbps
    Maximum bit rate : 8 000 Kbps
    Width : 720 pixels
    Height : 576 pixels
    Display aspect ratio : 16:9
    Frame rate : 25.000 fps
    Standard : PAL
    Color space : YUV
    Chroma subsampling : 4:2:0
    Bit depth : 8 bits
    Scan type : Interlaced
    Scan order : Top Field First
    Compression mode : Lossy
    Bits/(Pixel*Frame) : 0.523
    Time code of first frame : 01:00:00:00
    Time code source : Group of pictures t_head
    Stream size : 861 MiB (84%)

    Audio #1
    ID : 189 (0xBD)-128 (0x80)
    Format : AC-3
    Format/Info : Audio Coding 3
    Mode extension : CM (complete main)
    Format settings, Endianness : Big
    Muxing mode : DVD-Video
    Duration : 22mn 12s
    Bit rate mode : Constant
    Bit rate : 448 Kbps
    Channel(s) : 6 channels
    Channel positions : Front: L C R, Side: L R, LFE
    Sampling rate : 48.0 KHz
    Bit depth : 16 bits
    Compression mode : Lossy
    Delay relative to video : -80ms
    Stream size : 71.1 MiB (7%)

    Audio #2
    ID : 189 (0xBD)-129 (0x81)
    Format : AC-3
    Format/Info : Audio Coding 3
    Mode extension : CM (complete main)
    Format settings, Endianness : Big
    Muxing mode : DVD-Video
    Duration : 22mn 12s
    Bit rate mode : Constant
    Bit rate : 448 Kbps
    Channel(s) : 6 channels
    Channel positions : Front: L C R, Side: L R, LFE
    Sampling rate : 48.0 KHz
    Bit depth : 16 bits
    Compression mode : Lossy
    Delay relative to video : -80ms
    Stream size : 71.1 MiB (7%)

    Text
    ID : 189 (0xBD)-32 (0x20)
    Format : RLE
    Format/Info : Run-length encoding
    Muxing mode : DVD-Video


    Menu

    Скриншоты для ознакомления

    Залил: carisha
    Размер скачиваемого торрента: 3.90 GB (4189990912 Bytes)

    Кошмар на улице Вязов 5: Дитя сна / A Nightmare on Elm Street: The Dream Child (1989) DVD5 | P торрент скачать бесплатно
    загрузка...
    Рейтинг →
     (голосов: 1, оценка 4/5, голосовать можно 1 раз )

    Другие торренты по теме:

  • Кошмар на улице Вязов 7: Новый Кошмар / New Nightmare (1994) BDRip 1080p от Freeisland
  • Кошмар на улице Вязов 7: Новый Кошмар / New Nightmare (1994) HDRip от Scarabey | Р2
  • Кошмар на улице Вязов 7: Новый Кошмар / New Nightmare
  • Кошмар на улице Вязов / A Nightmare on Elm Street (1984) HDRip
  • Кошмар на улице Вязов 2: Месть Фредди / A Nightmare on Elm Street Part 2: Freddys Revenge (1985) DVDRip
  • Кошмар на улице Вязов 6: Фредди мертв / Freddys Dead: The Final Nightmare (1991) BDRip 1080p от Freeisland
  • Кошмар на улице Вязов 5: Дитя сна / A Nightmare on Elm Street: The Dream Child (1989) BDRip 1080p от Freeisland
  • Кошмар на улице Вязов 4: Повелитель сна / A Nightmare on Elm Street 4: The Dream Master (1988) BDRip 1080p от Freeisland


    • Комментарии (0):

      Информация

      Информация

        Посетители, находящиеся в группе Гости, не могут оставлять комментарии в данной новости.

        ↓ Меню



        ↓ Опрос

        А Вы добавили сайт в закладки?
        Да
        Не


        Top 10 за месяц (Фильмы)