.
Авторизация | Регистрация
Хочешь лучшие торренты? Добавь свой email!
Добавить
» » Афера по-американски / American Hustle (2013) BDRip от New-Team | D | лицензия скачать торрент бесплатно




    Афера по-американски / American Hustle (2013) BDRip от New-Team | D | лицензия скачать торрент бесплатно

    Опубликовал: Админ | Дата: 27-02-2015, 11:10 | Просмотров: 208

    Everyone Hustles To Survive



    Снималось в: США / Annapurna Pictures, Atlas Entertainment

    Категория жанра: драма, комедия
    Создали в: 2013
    Время просмотра: 02:18:04

    Перевод текста: Профессиональный (дублированный)
    Субтитры подготовлены: русский, английский
    Оригинальная аудиодорожка: английский (отдельным файлом)

    Главный режиссер: Дэвид О. Расселл / David O. Russell

    Актеры: Кристиан Бэйл, Эми Адамс, Брэдли Купер, Дженнифер Лоуренс, Джереми Реннер, Луис С.К., Алессандро Нивола, Джек Хьюстон, Роберт Де Ниро, Майкл Пенья...

    Роли дублировали: Андрей Саминин, Екатерина Брайковская, Дмитрий Сова, Наталья Романько

    Сюжет: В основе сюжета фильма реальная спецоперация, проводимая ФБР в конце 70-х — начале 80-х под кодовым названием Abscam. Она изначально была нацелена на расследование торговли краденым товаром. ФБР собиралось внедрить в преступную среду своих агентов под видом посредников, скупающих краденые шедевры для богатых коллекционеров Ближнего Востока. Впоследствии операция превратилась в изобличение коррупции на разных уровнях.



    Качество фильма: BDRip / BDRemux 1080p
    Тип видео: AVI

    Информация о видео: 720x304 (2.35:1), 23.976 fps, XviD ~ 1375 kbps avg, 0.262 bit/pixel
    Информация о звуке 1: 48 kHz, Dolby МР3, 2 ch, 128 kbps, русский
    Информация о звуке 2: 48 kHz, Dolby МР3, 2 ch, 128 kbps, английский (отдельным файлом)
    Тип видео субтитров: SoftSub (srt)

    Раздача от:
    Пояснения к звуку и субтитрам

    Русские субтитры я взял у некоего человека, который матерный язык считает своим родным. Весь мат из сабов удален (заменен на цивилизованные слова), при этом исправлены орфографические и синтаксические ошибки. Особо к тексту не присматривался, поэтому претензии, которые будут высказаны по тексту, относятся не совсем ко мне :) Звук, который сделал я, имеет некоторую особенность, лицензионный звук в районе 01:40:00 пришлось сдвинуть примерно на 150 мс, поэтому, если вы качаете другой релиз, будьте готовы получить рассинхрон в районе 200 с лишним мс. Я эту проблему решил, максимальный рассинхрон в этом релизе - 37 мс. К примеру рассинхрон в релизе Кинозала вот такой: конкретно здесь 215 мс. Может кому-то это и не так важно, но я привык всё делать на совесть.

    MediaInfo

    Общее
    Полное имя : Afera.po-amerikanski.2013.D.BDRip.1.46GB_New-Team_by_avproh.avi
    Формат : AVI
    Формат/Информация : Audio Video Interleave
    Размер файла : 1,46 Гбайт
    Продолжительность : 2 ч. 18 м.
    Общий поток : 1512 Кбит/сек
    Программа кодирования : VirtualDubModRus 1.5.10.2 (build 2542/release)
    Библиотека кодирования : VirtualDubMod build 2542/release

    Видео
    Идентификатор : 0
    Формат : MPEG-4 Visual
    Профиль формата : Advanced Simple@L5
    Параметр BVOP формата : 1
    Параметр QPel формата : Нет
    Параметр GMC формата : Без точки перехода
    Параметр матрицы формата : Выборочная
    Идентификатор кодека : XVID
    Идентификатор кодека/Подсказка : XviD
    Продолжительность : 2 ч. 18 м.
    Битрейт : 1375 Кбит/сек
    Ширина : 720 пикселей
    Высота : 304 пикселя
    Соотношение сторон : 2,35:1
    Частота кадров : 23,976 кадра/сек
    Цветовое пространство : YUV
    Субдискретизация насыщенности : 4:2:0
    Битовая глубина : 8 бит
    Тип развёртки : Прогрессивная
    Метод сжатия : С потерями
    Бит/(Пиксели*Кадры) : 0.262
    Размер потока : 1,33 Гбайт (91%)
    Библиотека кодирования : XviD 73

    Аудио
    Идентификатор : 1
    Формат : MPEG Audio
    Версия формата : Version 1
    Профиль формата : Layer 3
    Режим : Joint stereo
    Идентификатор кодека : 55
    Идентификатор кодека/Подсказка : MP3
    Продолжительность : 2 ч. 18 м.
    Вид битрейта : Постоянный
    Битрейт : 128 Кбит/сек
    Каналы : 2 канала
    Частота : 48,0 КГц
    Метод сжатия : С потерями
    Размер потока : 126 Мбайт (8%)
    Выравнивание : Соединение по промежуткам
    Продолжительность промежутка : 42 мс. (1,00 видеокадр)
    Время предзагрузки промежутка : 504 мс.

    Скриншоты для ознакомления:



    Залил: avproh
    Размер скачиваемого торрента: 1.58 GB (1698700305 Bytes)

    Афера по-американски / American Hustle (2013) BDRip от New-Team | D | лицензия торрент скачать бесплатно
    загрузка...
    Рейтинг →
     (голосов: 1, оценка 5/5, голосовать можно 1 раз )

    Другие торренты по теме:

  • Суета по - американски / Афера по - американски / American Hustle (2013) DVDScr скачать через торрент бесплатно
  • Афера по-американски / Суета По-Американски / American Hustle (2013) BDRip 720p | L1
  • Афера по-американски / Суета По-Американски / American Hustle (2013) BDRip 1080p от GORESEWAGE | LM, L1 скачать через торрент бесплатно
  • Афера по-американски / Суета По-Американски / American Hustle (2013) BDRip-AVC от R.G.TorrBy | Чистый звук скачать через торрент бесплатно
  • Афера по-американски / Суета По-Американски / American Hustle (2013) BDRip-AVC от R.G.TorrBy | Лицензия
  • Афера по-американски (2014) скачать через торрент бесплатно
  • Афера по-американски / American Hustle (2013) DVDScr | L скачать через торрент бесплатно
  • Афера по-американски / American Hustle (2013) DVDScr от Один 777 | L скачать через торрент бесплатно


    • Комментарии (0):

      Информация

      Информация

        Посетители, находящиеся в группе Гости, не могут оставлять комментарии в данной новости.

        ↓ Меню



        ↓ Опрос

        А Вы добавили сайт в закладки?
        Да
        Не


        Top 10 за месяц (Фильмы)