.
Авторизация | Регистрация
Хочешь лучшие торренты? Добавь свой email!
Добавить
» » Прибежище / Haunt (2013) WEB-DLRip | L2 скачать торрент бесплатно




    Прибежище / Haunt (2013) WEB-DLRip | L2 скачать торрент бесплатно

    Опубликовал: Админ | Дата: 27-02-2015, 11:10 | Просмотров: 224



    Создали в: 2013
    Создали в: США | QED International, Revolver Picture Company
    Категория жанра: Ужасы
    Перевод текста: Двуголосый закадровый, любительский
    Озвучка / Автор перевода: (DeadSno den904) - перевод на русский язык (А.Кедров)
    Субтитры: Отсутствуют
    Дата мировой премьеры: 6 ноября 2013 (США)
    Главный режиссер: Мак Картер
    Продюсер: Билл Блок, Пол Хэнсон, Антон Лессин
    Актеры: Лиана Либерато, Айони Скай, Джеки Уивер, Харрисон Джилбертсон, Даниэль Чачран, Джен Броберг, Келли Нунан, Алин Андраде, Касия Ковальчук, Себастьян Майкл Барр, Бренден Уитни, Мэгги Скотт, Джаррод Филлипс, Девилль Ванник ...

    Сюжет фильма:
    Замкнутый подросток воодушевляется знакомством со своим новым соседом, и уже вместе парочка начинает исследовать дом с привидениями, который его семья накануне купила по неведению.



    Время просмотра: 01:25:47
    Качество фильма видео: WEB-DLRip

    Информация о видеокодек: Xvid
    Битрейт видео: ~ 1845 Кбит/сек
    Размер скачиваемого торрента кадра: 720 x 304 (2.406) at 23.976 fps : 0.352 Bits/Pixel
    Информация о звуке: AC3 384 Кбит/сек (6ch), 48,0 КГц, 16 бит Русский, DVO
    Дополнительно: Сохранены оригинальные чаптеры как на Blu-ray



    Скриншоты для ознакомления


    MI
    Полное имя : G:Haunt.2013.L2.WEB-DLRip.1400MB.avi
    Формат : AVI
    Формат/Информация : Audio Video Interleave
    Размер файла : 1,34 Гбайт
    Продолжительность : 1 ч. 25 м.
    Общий поток : 2237 Кбит/сек

    Видео
    Идентификатор : 0
    Формат : MPEG-4 Visual
    Профиль формата : Advanced Simple@L5
    Параметр BVOP формата : 1
    Параметр QPel формата : Нет
    Параметр GMC формата : Без точки перехода
    Параметр матрицы формата : Default (MPEG)
    Режим смешивания : Сжатый битовый поток
    Идентификатор кодека : XVID
    Идентификатор кодека/Подсказка : XviD
    Продолжительность : 1 ч. 25 м.
    Битрейт : 1845 Кбит/сек
    Ширина : 720 пикселей
    Высота : 304 пикселя
    Соотношение сторон : 2,35:1
    Частота кадров : 23,976 кадра/сек
    Цветовое пространство : YUV
    Субдискретизация насыщенности : 4:2:0
    Битовая глубина : 8 бит
    Тип развёртки : Прогрессивная
    Метод сжатия : С потерями
    Бит/(Пиксели*Кадры) : 0.352
    Размер потока : 1,11 Гбайт (82%)
    Библиотека кодирования : XviD 1.2.1 (UTC 2008-12-04)

    Аудио
    Идентификатор : 1
    Формат : AC-3
    Формат/Информация : Audio Coding 3
    Расширение режима : CM (complete main)
    Параметр Endianness формата : Big
    Идентификатор кодека : 2000
    Продолжительность : 1 ч. 25 м.
    Вид битрейта : Постоянный
    Битрейт : 384 Кбит/сек
    Каналы : 6 каналов
    Расположение каналов : Front: L C R, Side: L R, LFE
    Частота : 48,0 КГц
    Битовая глубина : 16 бит
    Метод сжатия : С потерями
    Размер потока : 236 Мбайт (17%)
    Выравнивание : Соединение по промежуткам
    Продолжительность промежутка : 64 мс. (1,53 видеокадра)
    Время предзагрузки промежутка : 192 мс.


    Релиз подготовил:
    Залил: aleksndr
    Размер скачиваемого торрента: 1.34 GB (1439427096 Bytes)

    Прибежище / Haunt (2013) WEB-DLRip | L2 торрент скачать бесплатно
    загрузка...
    Рейтинг →
     (голосов: 1, оценка 5/5, голосовать можно 1 раз )

    Другие торренты по теме:

  • Площадка для игр дьявола / Прибежище Дьявола / The Devils Playground (1976) DVDRip от olegek70 | L1
  • Точка падения / Прибежище / Point de chute (1970) DVDRip | L1
  • Прибежище / Haunt / Haunter (2013) WEB-DL 720p от CINEMANIA | L1 скачать через торрент бесплатно
  • Логово / Прибежище / Haunt (2013) WEB-DLRip | Sub
  • Прибежище / Haunt / Haunter (2013) WEB-DL 720p от CINEMANIA | L2 скачать через торрент бесплатно
  • Прибежище / Haunt / Haunter (2013) WEB-DLRip-AVC | L2
  • Прибежище / Haunt / Haunter (2013) BDRip 1080p от CINEMANIA | L2, L1 скачать через торрент бесплатно
  • Прибежище / Haunt / Haunter (2013) BDRip 720p от CINEMANIA | L2, L1 скачать через торрент бесплатно


    • Комментарии (0):

      Информация

      Информация

        Посетители, находящиеся в группе Гости, не могут оставлять комментарии в данной новости.

        ↓ Меню



        ↓ Опрос

        А Вы добавили сайт в закладки?
        Да
        Не


        Top 10 за месяц (Фильмы)