.
Авторизация | Регистрация
Хочешь лучшие торренты? Добавь свой email!
Добавить
» » Перекрестный огонь / Bad Country (2014) BDRemux 1080p от NovaLan скачать через торрент бесплатно




    Перекрестный огонь / Bad Country (2014) BDRemux 1080p от NovaLan скачать через торрент бесплатно

    Опубликовал: Админ | Дата: 27-02-2015, 11:10 | Просмотров: 221



    Русское название: Перекрестный огонь
    Русское название в мировом прокате: Bad Country
    Создали в: 2014
    Категория жанра: Боевик, триллер, драма, криминал, детектив
    Главный режиссер: Крис Бринкер
    Актеры: Уиллем Дефо, Эми Смарт, Мэтт Диллон, Крис Маркетт, Том Беренджер, Нил МакДонаф, Дж.Д. Эвермор, Кристофер Денэм, Кевин Чэпмен, Билл Дьюк
    Сюжет фильма:
    Фильм снят по реальным событиям. Расследование детектива Бада Картера приводит к аресту Джесси Вейланда, наемного убийцы из преступного синдиката. Вейланд осознает, что попав в тюрьму, он потеряет свою семью, и решает довериться Картеру, став его информатором.


    Снималось в: США, ANA Media, CB Productions, Mandalay Vision, Whiskey Bay, Wilmor Entertainment
    Время просмотра: 01:44:22
    Перевод текста: Профессиональный многоголосый (Лицензия)

    Кодек для видео: H.264
    Качество фильма: Blu-Ray Remux 1080p
    Информация о видео: MPEG-4 AVC, 27.9 Мбит/с, 1920x1080, 23.976 кадр/с
    Информация о звуке: Русский (AC3, 6 ch, 384 Кбит/с), английский (DTS-HD MA, 6 ch, 1561 Кбит/с)
    Субтитры: Английские

    Инфо-файл

    Полное имя : E:Раздачи_EBad.Country.2014.BDRemux.1080p.NovaLan.mkv
    Формат : Matroska
    Версия формата : Version 4 / Version 2
    Размер файла : 22,2 Гбайт
    Продолжительность : 1 ч. 44 м.
    Режим общего битрейта : Переменный
    Общий поток : 30,4 Мбит/сек
    Название фильма : Bad Country 2014 - NovaLan
    Дата кодирования : UTC 2014-03-18 08:41:27
    Программа кодирования : mkvmerge v6.8.0 (;Theme for Great Cities;) 64bit built on Mar 2 2014 21:34:26
    Библиотека кодирования : libebml v1.3.0 libmatroska v1.4.1

    Видео
    Идентификатор : 1
    Формат : AVC
    Формат/Информация : Advanced Video Codec
    Профиль формата : High@L4.1
    Параметр CABAC формата : Да
    Параметр ReFrames формата : 2 кадра
    Идентификатор кодека : V_MPEG4/ISO/AVC
    Продолжительность : 1 ч. 44 м.
    Вид битрейта : Переменный
    Битрейт : 27,9 Мбит/сек
    Ширина : 1920 пикселей
    Высота : 1080 пикселей
    Соотношение сторон : 16:9
    Частота кадров : 23,976 кадра/сек
    Цветовое пространство : YUV
    Субдискретизация насыщенности : 4:2:0
    Битовая глубина : 8 бит
    Тип развёртки : Прогрессивная
    Бит/(Пиксели*Кадры) : 0.561
    Размер потока : 20,3 Гбайт (92%)
    Заголовок : Bad Country 2014 - NovaLan
    Default : Да
    Forced : Нет

    Аудио #1
    Идентификатор : 2
    Формат : AC-3
    Формат/Информация : Audio Coding 3
    Расширение режима : CM (complete main)
    Параметр Endianness формата : Big
    Идентификатор кодека : A_AC3
    Продолжительность : 1 ч. 44 м.
    Вид битрейта : Постоянный
    Битрейт : 384 Кбит/сек
    Каналы : 6 каналов
    Расположение каналов : Front: L C R, Side: L R, LFE
    Частота : 48,0 КГц
    Битовая глубина : 16 бит
    Метод сжатия : С потерями
    Размер потока : 287 Мбайт (1%)
    Язык : Russian
    Default : Да
    Forced : Нет

    Аудио #2
    Идентификатор : 3
    Формат : DTS
    Формат/Информация : Digital Theater Systems
    Профиль формата : MA / Core
    Идентификатор кодека : A_DTS
    Продолжительность : 1 ч. 44 м.
    Вид битрейта : Переменный
    Битрейт : 1561 Кбит/сек / 1510 Кбит/сек
    Каналы : 6 каналов
    Расположение каналов : Front: L C R, Side: L R, LFE
    Частота : 48,0 КГц
    Битовая глубина : 16 бит
    Метод сжатия : Без потерь / Lossy
    Язык : English
    Default : Нет
    Forced : Нет

    Текст #1
    Идентификатор : 4
    Формат : PGS
    Режим смешивания : zlib
    Идентификатор кодека : S_HDMV/PGS
    Идентификатор кодека/Информация : The same subtitle format used on BDs/HD-DVDs
    Язык : English
    Default : Нет
    Forced : Нет

    Текст #2
    Идентификатор : 5
    Формат : PGS
    Режим смешивания : zlib
    Идентификатор кодека : S_HDMV/PGS
    Идентификатор кодека/Информация : The same subtitle format used on BDs/HD-DVDs
    Язык : English
    Default : Нет
    Forced : Нет

    Меню
    00:00:00.000 : en:Chapter 1
    00:07:08.094 : en:Chapter 2
    00:12:23.409 : en:Chapter 3
    00:17:25.961 : en:Chapter 4
    00:25:57.681 : en:Chapter 5
    00:30:55.979 : en:Chapter 6
    00:39:20.566 : en:Chapter 7
    00:46:28.202 : en:Chapter 8
    00:53:10.478 : en:Chapter 9
    00:58:37.722 : en:Chapter 10
    01:02:18.943 : en:Chapter 11
    01:09:40.509 : en:Chapter 12
    01:16:09.690 : en:Chapter 13
    01:21:41.021 : en:Chapter 14
    01:27:55.812 : en:Chapter 15
    01:35:38.733 : en:Chapter 16


    Релиз группа NovaLan
    Автор сборки Sergei7721






    Релиз подготовил:


    Залил: Sergei7721
    Размер скачиваемого торрента: 22.19 GB (23829875602 Bytes)

    Перекрестный огонь / Bad Country (2014) BDRemux 1080p от NovaLan скачать через торрент бесплатно
    загрузка...
    Рейтинг →
     (голосов: 1, оценка 5/5, голосовать можно 1 раз )

    Другие торренты по теме:

  • Перекрестный огонь / Bad Country (2014) DVDRip | Лицензия
  • Перекрестный огонь / Bad Country (2014) DVDRip-AVC от MediaClub | Лицензия скачать через торрент бесплатно
  • Перекрестный огонь / Bad Country (2014) WEB-DL 720p скачать через торрент бесплатно
  • Перекрестный огонь / Bad Country (2014) WEB-DLRip скачать через торрент бесплатно
  • Перекрестный огонь / Bad Country (2014) WEB-DLRip от Scarabey | P | Лицензия скачать через торрент бесплатно
  • Перекрестный огонь / Bad Country (2014) HDRip-AVC от ExKinoRay | Лицензия скачать через торрент бесплатно
  • Перекрестный огонь / Bad Country (2014) BDRip 1080p | P | Лицензия скачать через торрент бесплатно
  • Перекрестный огонь / Bad Country (2014) BDRip от Rulya74 | Лицензия скачать через торрент бесплатно


    • Комментарии (0):

      Информация

      Информация

        Посетители, находящиеся в группе Гости, не могут оставлять комментарии в данной новости.

        ↓ Меню



        ↓ Опрос

        А Вы добавили сайт в закладки?
        Да
        Не


        Top 10 за месяц (Фильмы)