.
Авторизация | Регистрация
Хочешь лучшие торренты? Добавь свой email!
Добавить
» » Сумасшедший / Pazze di me (2013) BDRip-AVC | L1 скачать через торрент бесплатно




    Сумасшедший / Pazze di me (2013) BDRip-AVC | L1 скачать через торрент бесплатно

    Опубликовал: Админ | Дата: 27-02-2015, 11:10 | Просмотров: 257



    Детально о кино
    Русское название: Сумасшедший
    Русское название в мировом прокате: Pazze di me
    Создали в: 2013
    Категория жанра: комедия
    Главный режиссер: Фаусто Брицци
    Актеры: Франческо Манделли, Лоретта Годжи, Киара Франчини, Клаудия Дзанелла, Марина Рокко, Валерия Билелло, Люсия Поли, Паола Миначчони, Маурицио Микели, Флавио Инсинна, Маргерита Викарио, Алессандро Тибери, Фабрицио Биджо, Пиф, Эди Анжелилло, Маурицио Лопс, Раффаэле Ванноли, Микеле Ла Джинестра, Джузеппе Морроне, Кевин Чиароре, Сони Баттисти, Фатима Деодато, Линда Ди Серио, Франческа Фигус, Лучия Боденидза, Филиппо Рома

    Сюжет фильма:
    Андреа - единственный парень в чисто женской семье: мама, три сестры, бабушка, ее сиделка и собака, конечно же сучка. Отец семейства сбежал от них много лет назад, не вынеся этот женский коллектив. Перед уходом он сказал сыну: Теперь это твоя головная боль. Только через много лет он понял, что имел ввиду отец. Андреа пришлось очень нелегко, всю его жизнь его семья, может и не преднамеренно, но отравляла ему жизнь, в особенности в плане отношений с девушками. И вот, когда он встретил девушку всей своей жизни, Андреа не нашел ничего умнее, как выдать себя за сироту. И все бы было хорошо, но такую семью нелегко скрыть, даже в большом городе и обман раскрывается...




    Снималось в: Италия
    Киностудия: Monte dei Paschi di Siena, Rai Cinema…
    Время просмотра: 01:34:51
    Перевод текста: Любительское (одноголосое) datynet

    Файл
    Кодек для видео: h.264
    Качество фильма: BDRip-AVC
    Информация о видео: AVC, 1024 x 436, ~1818 kbps
    Информация о звуке: Русский: AC-3, 2 ch, 128 kbps / Итальянский: AC-3, 6 ch, 448 kbps
    Субтитры: Английские

    Семпл

    Скриншоты для ознакомления
    MI
    Общее
    Уникальный идентификатор : 168348648403719580577546155723716462494 (0x7EA6C532C2870C1E037BA147C20E879E)
    Полное имя : G:Сумасшедший Pazze di me (2013) BDRip-AVCPazze.Di.Me.2013.BDRip-AVC.mkv
    Формат : Matroska
    Версия формата : Version 2
    Размер файла : 1,62 Гбайт
    Продолжительность : 1 ч. 34 м.
    Режим общего битрейта : Переменный
    Общий поток : 2443 Кбит/сек
    Программа кодирования : Lavf51.12.1
    Библиотека кодирования : Lavf51.12.1

    Видео
    Идентификатор : 1
    Формат : AVC
    Формат/Информация : Advanced Video Codec
    Профиль формата : Baseline@L3.1
    Параметр CABAC формата : Нет
    Параметр ReFrames формата : 1 кадр
    Параметр GOP формата : M=1, N=12
    Идентификатор кодека : V_MPEG4/ISO/AVC
    Продолжительность : 1 ч. 34 м.
    Вид битрейта : Переменный
    Битрейт : 1818 Кбит/сек
    Максимальный битрейт : 2790 Кбит/сек
    Ширина : 1024 пикселя
    Высота : 436 пикселей
    Соотношение сторон : 2,35:1
    Соотношение сторон в оригинале : 2,35:1
    Режим частоты кадров : Постоянный
    Частота кадров : 24,000 кадра/сек
    Цветовое пространство : YUV
    Субдискретизация насыщенности : 4:2:0
    Битовая глубина : 8 бит
    Тип развёртки : Прогрессивная
    Бит/(Пиксели*Кадры) : 0.170
    Размер потока : 1,20 Гбайт (74%)
    Язык : English
    Default : Да
    Forced : Нет

    Аудио #1
    Идентификатор : 2
    Формат : AC-3
    Формат/Информация : Audio Coding 3
    Расширение режима : CM (complete main)
    Параметр Endianness формата : Big
    Идентификатор кодека : A_AC3
    Продолжительность : 1 ч. 34 м.
    Вид битрейта : Постоянный
    Битрейт : 128 Кбит/сек
    Каналы : 2 канала
    Расположение каналов : Front: L R
    Частота : 44,1 КГц
    Битовая глубина : 16 бит
    Метод сжатия : С потерями
    Размер потока : 86,8 Мбайт (5%)
    Язык : Russian
    Default : Да
    Forced : Нет

    Аудио #2
    Идентификатор : 4
    Формат : AC-3
    Формат/Информация : Audio Coding 3
    Расширение режима : CM (complete main)
    Параметр Endianness формата : Big
    Идентификатор кодека : A_AC3
    Продолжительность : 1 ч. 34 м.
    Вид битрейта : Постоянный
    Битрейт : 448 Кбит/сек
    Каналы : 6 каналов
    Расположение каналов : Front: L C R, Side: L R, LFE
    Частота : 48,0 КГц
    Битовая глубина : 16 бит
    Метод сжатия : С потерями
    Размер потока : 304 Мбайт (18%)
    Язык : Italian
    Default : Да
    Forced : Нет

    Текст
    Идентификатор : 3
    Формат : UTF-8
    Идентификатор кодека : S_TEXT/UTF8
    Идентификатор кодека/Информация : UTF-8 Plain Text
    Язык : English
    Default : Да
    Forced : Нет

    Размер скачиваемого торрента: 1.62 GB (1737672557 Bytes)

    Сумасшедший / Pazze di me (2013) BDRip-AVC | L1 скачать через торрент бесплатно
    загрузка...
    Рейтинг →
     (голосов: 1, оценка 3/5, голосовать можно 1 раз )

    Другие торренты по теме:

  • Как сумасшедший / Like Crazy (2011) BDRip 720p от KinoFan
  • Сумасшедший дом / De Gales hus (2008) DVDRip
  • Один сумасшедший парень / Ekk Deewana Tha (2012) DVDRip | Sub
  • Сумасшедший дом / Madhouse (1990) HDTVRip-AVC от Brazzass скачать через торрент бесплатно
  • Сумасшедший / Pazze di me (2013) HDRip | L1 скачать через торрент бесплатно
  • Сумасшедший / Pazze di me (2013) BDRip 1080p от CINEMANIA | L1
  • Сумасшедший / Pazze di me (2013) BDRip 720p от CINEMANIA | L1
  • Сумасшедший пляж / La Playa Loca (1989) DVDRip | P2


    • Комментарии (0):

      Информация

      Информация

        Посетители, находящиеся в группе Гости, не могут оставлять комментарии в данной новости.

        ↓ Меню



        ↓ Опрос

        А Вы добавили сайт в закладки?
        Да
        Не


        Top 10 за месяц (Фильмы)