.
Авторизация | Регистрация
Хочешь лучшие торренты? Добавь свой email!
Добавить
» » Зои Харт из южного штата / Сердце Дикси / Hart of Dixie (2013) WEB-DLRip | To4ka скачать торрент бесплатно




    Зои Харт из южного штата / Сердце Дикси / Hart of Dixie (2013) WEB-DLRip | To4ka скачать торрент бесплатно

    Опубликовал: Админ | Дата: 27-02-2015, 11:10 | Просмотров: 234



    Детально о кино
    Русское название: Зои Харт из южного штата / Сердце Дикси
    Русское название в мировом прокате: Hart of Dixie
    Создали в: 2013
    Категория жанра: драма, мелодрама, комедия
    Главный режиссер: Дэвид Пэймер, Тим Мэтисон, Джеймс Хейман
    Актеры: Рэйчел Билсон, Джейми Кинг, Кресс Уильямс, Уилсон Бетел, Скотт Портер, Дебора С. Крэйг, Тим Мэтисон, Реджинальд ВелДжонсон, Росс Филипс, Эйза Дэвис

    Сюжет фильма:
    Молодой врач из Нью-Йорка, по имени Зои Харт, отправляется на практику в небольшой городок на юге США, населенном необычными и эксцентричными личностями, и она всеми силами пытается адаптироваться на новом месте.


    Официальный сайт

    Снималось в: США
    Киностудия: Warner Bros. Television, CBS Television Studios, Fake Empire Productions
    Время просмотра: ~42 минуты серия
    Перевод текста: Любительский (многоголосый, закадровый) To4ka
    Озвучка: Александр Нелюбин, Ирина Грачева, Марина Комчарукова
    Перевод текста: Релиз-группа Частная практика
    Работа с видео и рип: LegendKiev
    Сведение звука: Kyliknikylik

    Файл
    Кодек для видео: XviD / MP3
    Качество фильма: WEB-DLRip
    Информация о видео: XviD, 720x400 (16:9), 23.976 fps, 1 205 Kbps (0.174 bit/pixel)
    Информация о звуке:
    Аудио #1: MP3, 48.0 KHz, 2 ch, 128 Kbps, CBR
    Аудио #2: MP3, 48.0 KHz, 2 ch, 128 Kbps, CBR

    Скриншоты для ознакомления
    Screenshots
    MediaInfo
    General
    Complete name : Hart.of.Dixie.s03e01.WEB-DLRip.Rus.Eng.To4ka.TV.avi
    Format : AVI
    Format/Info : Audio Video Interleave
    File size : 451 MiB
    Duration : 42mn 43s
    Overall bit rate : 1 475 Kbps
    Writing application : VirtualDubModRus 1.5.10.2 (build 2542/release)
    Writing library : VirtualDubMod build 2542/release

    Video
    ID : 0
    Format : MPEG-4 Visual
    Format profile : Advanced Simple@L5
    Format settings, BVOP : 1
    Format settings, QPel : No
    Format settings, GMC : No warppoints
    Format settings, Matrix : Custom
    Codec ID : XVID
    Codec ID/Hint : XviD
    Duration : 42mn 43s
    Bit rate : 1 205 Kbps
    Width : 720 pixels
    Height : 400 pixels
    Display aspect ratio : 16:9
    Frame rate : 23.976 fps
    Color space : YUV
    Chroma subsampling : 4:2:0
    Bit depth : 8 bits
    Scan type : Progressive
    Compression mode : Lossy
    Bits/(Pixel*Frame) : 0.174
    Stream size : 368 MiB (82%)
    Writing library : XviD 73

    Audio #1
    ID : 1
    Format : MPEG Audio
    Format version : Version 1
    Format profile : Layer 3
    Mode : Joint stereo
    Mode extension : MS Stereo
    Codec ID : 55
    Codec ID/Hint : MP3
    Duration : 42mn 43s
    Bit rate mode : Constant
    Bit rate : 128 Kbps
    Channel(s) : 2 channels
    Sampling rate : 48.0 KHz
    Compression mode : Lossy
    Stream size : 39.1 MiB (9%)
    Alignment : Aligned on interleaves
    Interleave, duration : 42 ms (1.00 video frame)
    Interleave, preload duration : 504 ms

    Audio #2
    ID : 2
    Format : MPEG Audio
    Format version : Version 1
    Format profile : Layer 3
    Mode : Joint stereo
    Mode extension : MS Stereo
    Codec ID : 55
    Codec ID/Hint : MP3
    Duration : 42mn 43s
    Bit rate mode : Constant
    Bit rate : 128 Kbps
    Channel(s) : 2 channels
    Sampling rate : 48.0 KHz
    Compression mode : Lossy
    Stream size : 39.1 MiB (9%)
    Alignment : Split accross interleaves
    Interleave, duration : 42 ms (1.00 video frame)
    Interleave, preload duration : 500 ms

    Размер скачиваемого торрента: 3.96 GB (4249284608 Bytes)

    Зои Харт из южного штата / Сердце Дикси / Hart of Dixie (2013) WEB-DLRip | To4ka торрент скачать бесплатно
    загрузка...
    Рейтинг →
     (голосов: 1, оценка 3/5, голосовать можно 1 раз )

    Другие торренты по теме:

  • Зои Харт из южного штата / Сердце Дикси / Hart of Dixie (2012) WEBDLRip | To4ka


    • Комментарии (0):

      Информация

      Информация

        Посетители, находящиеся в группе Гости, не могут оставлять комментарии в данной новости.

        ↓ Меню



        ↓ Опрос

        А Вы добавили сайт в закладки?
        Да
        Не


        Top 10 за месяц (Фильмы)