.
Авторизация | Регистрация
Хочешь лучшие торренты? Добавь свой email!
Добавить
» » После мрака свет / Post Tenebras Lux (2012) BDRip 720p от CINEMANIA | НТВ скачать торрент бесплатно




    После мрака свет / Post Tenebras Lux (2012) BDRip 720p от CINEMANIA | НТВ скачать торрент бесплатно

    Опубликовал: Админ | Дата: 27-02-2015, 11:10 | Просмотров: 182



    Детально о кино
    Русское название: После мрака свет
    Русское название в мировом прокате: Post Tenebras Lux
    Создали в: 2012
    Категория жанра: драма
    Главный режиссёр: Карлос Рейгадас
    Актеры: Рут Рейгадас, Митси Ферран, Хоаким Чардонненс, Андер Верес, Виллебальдо Торрес, Наталиа Асеведо, Адольфо Хименес Кастро, Элизар Рейгадас, Хосе Альберто Санчес

    Сюжет фильма:
    Хуан и Наталия — классическая пара из Латинской Америки с двумя чудесными маленькими детьми. Они покидают Европу, оставляя в прошлом богемные тусовки, эротические эксперименты и привычный им социум — ради тихой и спокойной семейной жизни на родине, в Мексике, в их уединенном доме в горах. Нанимая строительную бригаду из местных жителей, чтоб привести дом в порядок, супруги неожиданно встречают среди них непримиримого врага...



    Снималось в: Мексика, Франция, Нидерланды, Германия
    Время просмотра: 01:54:44
    Тип перевода: Профессиональное (двухголосое) Нтв

    Файл
    Тип видео: MKV
    Качество фильма: BDRip 720p EbP
    Информация о видео: 5374 kb/s, 944x720
    Информация о звуке: Russian: AC3, 192 kb/s (2 ch) / Spanish: AC3, 640 kb/s (6 ch)
    Субтитры: Russian daft-digger, English
    Дополнительно: Сохранены оригинальные чаптеры как на Blu-Ray
    Размер скачиваемого торрента: 5.07 GB
    Скачать: Сэмпл

    Релиз группы:



    NFO
    Общее
    Post.Tenebras.Lux.2012.Blu.Ray.720p.CINEMANIA..mkv
    Формат : Matroska
    Версия формата : Version 4 / Version 2
    Размер файла : 5,07 Гбайт
    Продолжительность : 1 ч. 54 м.
    Общий поток : 6332 Кбит/сек
    Название фильма : Release Group CINEMANIA
    Дата кодирования : UTC 2014-03-17 00:17:56
    Программа кодирования : mkvmerge v6.8.0 (;Theme for Great Cities;) 64bit built on Mar 2 2014 21:34:26
    Библиотека кодирования : libebml v1.3.0 libmatroska v1.4.1

    Видео
    Идентификатор : 1
    Формат : AVC
    Формат/Информация : Advanced Video Codec
    Профиль формата : High@L4.1
    Параметр CABAC формата : Да
    Параметр ReFrames формата : 12 кадров
    Идентификатор кодека : V_MPEG4/ISO/AVC
    Продолжительность : 1 ч. 54 м.
    Битрейт : 5374 Кбит/сек
    Ширина : 944 пикселя
    Высота : 720 пикселей
    Соотношение сторон : 4:3
    Режим частоты кадров : Постоянный
    Частота кадров : 24,000 кадра/сек
    Цветовое пространство : YUV
    Субдискретизация насыщенности : 4:2:0
    Битовая глубина : 8 бит
    Тип развёртки : Прогрессивная
    Бит/(Пиксели*Кадры) : 0.329
    Размер потока : 4,31 Гбайт (85%)
    Заголовок : Release Group CINEMANIA
    Язык : Spanish
    Default : Да
    Forced : Нет

    Аудио #1
    Идентификатор : 2
    Формат : AC-3
    Формат/Информация : Audio Coding 3
    Расширение режима : CM (complete main)
    Параметр Endianness формата : Big
    Идентификатор кодека : A_AC3
    Продолжительность : 1 ч. 54 м.
    Вид битрейта : Постоянный
    Битрейт : 192 Кбит/сек
    Каналы : 2 канала
    Расположение каналов : Front: L R
    Частота : 48,0 КГц
    Битовая глубина : 16 бит
    Метод сжатия : С потерями
    Размер потока : 158 Мбайт (3%)
    Заголовок : Нтв
    Язык : Russian
    Default : Да
    Forced : Да

    Аудио #2
    Идентификатор : 3
    Формат : AC-3
    Формат/Информация : Audio Coding 3
    Расширение режима : CM (complete main)
    Параметр Endianness формата : Big
    Идентификатор кодека : A_AC3
    Продолжительность : 1 ч. 54 м.
    Вид битрейта : Постоянный
    Битрейт : 640 Кбит/сек
    Каналы : 6 каналов
    Расположение каналов : Front: L C R, Side: L R, LFE
    Частота : 48,0 КГц
    Битовая глубина : 16 бит
    Метод сжатия : С потерями
    Размер потока : 525 Мбайт (10%)
    Язык : Spanish
    Default : Нет
    Forced : Нет

    Текст #1
    Идентификатор : 4
    Формат : UTF-8
    Идентификатор кодека : S_TEXT/UTF8
    Идентификатор кодека/Информация : UTF-8 Plain Text
    Заголовок : daft-digger
    Язык : Russian
    Default : Нет
    Forced : Нет

    Текст #2
    Идентификатор : 5
    Формат : UTF-8
    Идентификатор кодека : S_TEXT/UTF8
    Идентификатор кодека/Информация : UTF-8 Plain Text
    Язык : English
    Default : Нет
    Forced : Нет

    Меню
    00:00:00.000 : en:00:00:00.000
    00:06:45.542 : en:00:06:45.542
    00:11:38.667 : en:00:11:38.667
    00:16:16.417 : en:00:16:16.417
    00:23:09.625 : en:00:23:09.625
    00:31:11.167 : en:00:31:11.167
    00:38:21.333 : en:00:38:21.333
    00:45:36.958 : en:00:45:36.958
    00:50:39.667 : en:00:50:39.667
    00:56:35.750 : en:00:56:35.750
    01:01:51.458 : en:01:01:51.458
    01:09:36.583 : en:01:09:36.583
    01:15:19.083 : en:01:15:19.083
    01:22:12.875 : en:01:22:12.875
    01:30:37.125 : en:01:30:37.125
    01:35:47.917 : en:01:35:47.917
    01:41:36.250 : en:01:41:36.250
    01:48:39.083 : en:01:48:39.083

    Залил: DGEKIGAN
    Размер скачиваемого торрента: 5.07 GB (5448918242 Bytes)

    После мрака свет / Post Tenebras Lux (2012) BDRip 720p от CINEMANIA | НТВ торрент скачать бесплатно
    загрузка...
    Рейтинг →
     (голосов: 1, оценка 3/5, голосовать можно 1 раз )

    Другие торренты по теме:

  • После мрака свет / Post Tenebras Lux (2012) BDRip
  • После мрака свет / Post Tenebras Lux (2012) BDRip 1080p от CINEMANIA | НТВ
  • После мрака свет / Post Tenebras Lux (2012) HDRip-AVC от New-Team | P2 | НТВ


    • Комментарии (0):

      Информация

      Информация

        Посетители, находящиеся в группе Гости, не могут оставлять комментарии в данной новости.

        ↓ Меню



        ↓ Опрос

        А Вы добавили сайт в закладки?
        Да
        Не


        Top 10 за месяц (Фильмы)