.
Авторизация | Регистрация
Хочешь лучшие торренты? Добавь свой email!
Добавить
» » Вероника Марс / Veronica Mars (2014) WEB-DLRip-AVC | L1 скачать торрент бесплатно




    Вероника Марс / Veronica Mars (2014) WEB-DLRip-AVC | L1 скачать торрент бесплатно

    Опубликовал: Админ | Дата: 27-02-2015, 11:10 | Просмотров: 229



    Детально о кино
    Русское название: Вероника Марс
    Русское название в мировом прокате: Veronica Mars
    Создали в: 2014
    Категория жанра: детектив, криминал, драма, комедия
    Главный режиссер: Роб Томас
    Актеры: Кристен Белл, Джейсон Доринг, Кристен Риттер, Райан Хансен, Фрэнсис Капра, Перси Даггс III, Крис Лоуэлл, Тина Мажорино, Энрико Колантони, Джеймс Франко

    Сюжет фильма: Она думала, что её здесь нет…
    Когда-то помогая отцу распутывать преступления в родном городе Нептун, Вероника Марс понимала, что это не будет длиться вечно. Уехав в Нью-Йорк и получив должность адвоката в хорошей фирме, она была уверена, что вырвалась из замкнутого круга. Она ошибалась. Ее бывший парень Логан Экхолз обвиняется в убийстве своей подруги - молодой старлетки. Приняв решение помочь ему, Вероника возвращается в Нептун и начинает собственное расследование. Внезапно она оказывается в самой гуще событий, окруженная друзьями и врагами. И самый большой вопрос - кому можно верить, а кому - нет...




    Снималось в: США
    Киностудия: Rob Thomas Productions, Spondoolie Productions, Warner Bros. Digital Distribution
    Время просмотра: 01:47:37
    Перевод текста: Любительское (одноголосое) qwerty

    Файл
    Кодек для видео: h.264
    Качество фильма: WEB-DLRip-AVC
    Информация о видео: AVC, 1024 x 424, ~1615 kbps
    Информация о звуке: Русский / Английский: AC-3, 6 ch, 448 kbps
    Субтитры: Русский iTunes Russian

    Семпл

    Скриншоты для ознакомления
    MI
    Общее
    Уникальный идентификатор : 168348648403719580577546155723716462494 (0x7EA6C532C2870C1E037BA147C20E879E)
    Полное имя : G:Вероника Марс Veronica Mars (2014) WEB-DLRip-AVCVeronica.Mars.2014.WEB-DLRip-AVC..mkv
    Формат : Matroska
    Версия формата : Version 2
    Размер файла : 1,88 Гбайт
    Продолжительность : 1 ч. 47 м.
    Режим общего битрейта : Переменный
    Общий поток : 2497 Кбит/сек
    Программа кодирования : Lavf51.12.1
    Библиотека кодирования : Lavf51.12.1

    Видео
    Идентификатор : 1
    Формат : AVC
    Формат/Информация : Advanced Video Codec
    Профиль формата : Baseline@L3.1
    Параметр CABAC формата : Нет
    Параметр ReFrames формата : 1 кадр
    Параметр GOP формата : M=1, N=12
    Идентификатор кодека : V_MPEG4/ISO/AVC
    Продолжительность : 1 ч. 47 м.
    Вид битрейта : Переменный
    Битрейт : 1615 Кбит/сек
    Максимальный битрейт : 2490 Кбит/сек
    Ширина : 1024 пикселя
    Высота : 424 пикселя
    Соотношение сторон : 2,40:1
    Режим частоты кадров : Постоянный
    Частота кадров : 23,976 кадра/сек
    Частота кадров в оригинале : 24,000 кадра/сек
    Цветовое пространство : YUV
    Субдискретизация насыщенности : 4:2:0
    Битовая глубина : 8 бит
    Тип развёртки : Прогрессивная
    Бит/(Пиксели*Кадры) : 0.155
    Размер потока : 1,21 Гбайт (65%)
    Default : Да
    Forced : Нет

    Аудио #1
    Идентификатор : 2
    Формат : AC-3
    Формат/Информация : Audio Coding 3
    Расширение режима : CM (complete main)
    Параметр Endianness формата : Big
    Идентификатор кодека : A_AC3
    Продолжительность : 1 ч. 47 м.
    Вид битрейта : Постоянный
    Битрейт : 384 Кбит/сек
    Каналы : 6 каналов
    Расположение каналов : Front: L C R, Side: L R, LFE
    Частота : 48,0 КГц
    Битовая глубина : 16 бит
    Метод сжатия : С потерями
    Размер потока : 296 Мбайт (15%)
    Язык : Russian
    Default : Да
    Forced : Нет

    Аудио #2
    Идентификатор : 4
    Формат : AC-3
    Формат/Информация : Audio Coding 3
    Расширение режима : CM (complete main)
    Параметр Endianness формата : Big
    Идентификатор кодека : A_AC3
    Продолжительность : 1 ч. 47 м.
    Вид битрейта : Постоянный
    Битрейт : 448 Кбит/сек
    Каналы : 6 каналов
    Расположение каналов : Front: L C R, Side: L R, LFE
    Частота : 48,0 КГц
    Битовая глубина : 16 бит
    Метод сжатия : С потерями
    Размер потока : 345 Мбайт (18%)
    Язык : English
    Default : Да
    Forced : Нет

    Текст
    Идентификатор : 3
    Формат : UTF-8
    Идентификатор кодека : S_TEXT/UTF8
    Идентификатор кодека/Информация : UTF-8 Plain Text
    Язык : Russian
    Default : Да
    Forced : Нет

    Размер скачиваемого торрента: 1.88 GB (2015683387 Bytes)

    Вероника Марс / Veronica Mars (2014) WEB-DLRip-AVC | L1 торрент скачать бесплатно
    загрузка...
    Рейтинг →
     (голосов: 1, оценка 4/5, голосовать можно 1 раз )

    Другие торренты по теме:

  • Вероника Марс / Veronica Mars (2004-2007) WEB-DLRip
  • Вероника Марс / Veronica Mars (2014) WEB-DL 720p | Sub скачать через торрент бесплатно
  • Вероника Марс / Veronica Mars (2014) WEB-DL 720p от CINEMANIA | L1
  • Вероника Марс / Veronica Mars (2014) WEB-DLRip от New-Team | L1
  • Вероника Марс / Veronica Mars (2014) WEB-DLRIp-AVC от ExKinoRay | L1
  • Вероника Марс / Veronica Mars (2014) WEB-DLRip от New-Team | L | Baibako скачать через торрент бесплатно
  • Вероника Марс / Veronica Mars (2014) WEB-DLRip от Scarabey | BaibaKo скачать через торрент бесплатно
  • OST - Вероника Марс / Veronica Mars (2014) MP3


    • Комментарии (0):

      Информация

      Информация

        Посетители, находящиеся в группе Гости, не могут оставлять комментарии в данной новости.

        ↓ Меню



        ↓ Опрос

        А Вы добавили сайт в закладки?
        Да
        Не


        Top 10 за месяц (Фильмы)