.
Авторизация | Регистрация
Хочешь лучшие торренты? Добавь свой email!
Добавить
» » Высокие каблуки / Tacones lejanos / High Heels (1991) BDRip by msltel | P, L1 скачать торрент бесплатно




    Высокие каблуки / Tacones lejanos / High Heels (1991) BDRip by msltel | P, L1 скачать торрент бесплатно

    Опубликовал: Админ | Дата: 27-02-2015, 11:10 | Просмотров: 199



    Русское название: Высокие каблуки
    Русское название в мировом прокате: Tacones lejanos / High Heels
    Создали в: 1991
    Категория жанра: Драма, мелодрама, комедия
    Снималось в: Испания, Франция, Le Studio Canal , CiBy 2000, El Deseo, TF1 Films
    Главный режиссер: Педро Альмодовар
    Актеры: Виктория Абриль, Мариса Паредес, Мигель Бозе, Анна Лисаран, Майрата О’Висиедо, Кристина Маркос, Феодор Аткин, Педро Диас дель Корраль, Бибиана Фернандес, Начо Мартинес

    Сюжет фильма: Мать и дочь оказываются замешанными в таинственном убийстве. Его расследование проливает свет на их запутанные отношения как между собой, так и с окружающими людьми.

    Качество фильма: BDRip
    Информация о видео: XviD, 1905 Кбит/с, 720x352
    Информация о звуке: Русский, испанский (АС3, 2 ch, 192 Кбит/с)
    Размер скачиваемого торрента: 1.98 ГБ
    Время просмотра: 01:53:27
    Перевод текста: Профессиональный многоголосый, любительский одноголосый (VHS)
    Субтитры: Русские

    Исходник: posodobl (Кинозал)

    Сравнение с исходником



    Награды
    Сезар, 1993 год
    Победитель (1):
    Лучший фильм на иностранном языке

    Золотой глобус, 1992 год
    Номинации (1):
    Лучший фильм на иностранном языке — Испания

    Гойя, 1992 год
    Номинации (5):
    Лучшая женская роль второго плана (Кристина Маркос)
    Лучшая работа художника по костюмам
    Лучший звук
    Лучший монтаж
    Лучший грим/причёски
    MediaInfo
    Общее
    Полное имя : D:VideoVysokie kabluki.1991.XviD.BDRipVysokie kabluki.1991.Original.spa.ac3
    Формат : AC-3
    Формат/Информация : Audio Coding 3
    Размер файла : 156 Мбайт
    Продолжительность : 1 ч. 53 м.
    Режим общего битрейта : Постоянный
    Общий поток : 192 Кбит/сек

    Аудио
    Формат : AC-3
    Формат/Информация : Audio Coding 3
    Расширение режима : CM (complete main)
    Параметр Endianness формата : Big
    Продолжительность : 1 ч. 53 м.
    Вид битрейта : Постоянный
    Битрейт : 192 Кбит/сек
    Каналы : 2 канала
    Расположение каналов : Front: L R
    Частота : 48,0 КГц
    Битовая глубина : 16 бит
    Метод сжатия : С потерями
    Размер потока : 156 Мбайт (100%)

    Общее
    Полное имя : D:VideoVysokie kabluki.1991.XviD.BDRipVysokie kabluki.1991.rus.srt
    Формат : SubRip
    Размер файла : 105 Кбайт

    Текст
    Формат : SubRip
    Метод сжатия : Без потерь

    Общее
    Полное имя : D:VideoVysokie kabluki.1991.XviD.BDRipVysokie kabluki.1991.XviD.BDRip.avi
    Формат : AVI
    Формат/Информация : Audio Video Interleave
    Размер файла : 1,82 Гбайт
    Продолжительность : 1 ч. 53 м.
    Общий поток : 2303 Кбит/сек
    Программа кодирования : VirtualDubMod 1.5.10.2 (build 2540/release)
    Библиотека кодирования : VirtualDubMod build 2540/release

    Видео
    Идентификатор : 0
    Формат : MPEG-4 Visual
    Профиль формата : Advanced Simple@L5
    Параметр BVOP формата : 1
    Параметр QPel формата : Нет
    Параметр GMC формата : Без точки перехода
    Параметр матрицы формата : Default (H.263)
    Режим смешивания : Сжатый битовый поток
    Идентификатор кодека : XVID
    Идентификатор кодека/Подсказка : XviD
    Продолжительность : 1 ч. 53 м.
    Битрейт : 1905 Кбит/сек
    Ширина : 720 пикселей
    Высота : 352 пикселя
    Соотношение сторон : 2,045
    Частота кадров : 24,000 кадра/сек
    Цветовое пространство : YUV
    Субдискретизация насыщенности : 4:2:0
    Битовая глубина : 8 бит
    Тип развёртки : Прогрессивная
    Метод сжатия : С потерями
    Бит/(Пиксели*Кадры) : 0.313
    Размер потока : 1,51 Гбайт (83%)
    Библиотека кодирования : XviD 1.2.1 (UTC 2008-12-04)

    Аудио #1
    Идентификатор : 1
    Формат : AC-3
    Формат/Информация : Audio Coding 3
    Расширение режима : CM (complete main)
    Параметр Endianness формата : Big
    Идентификатор кодека : 2000
    Продолжительность : 1 ч. 53 м.
    Вид битрейта : Постоянный
    Битрейт : 192 Кбит/сек
    Каналы : 2 канала
    Расположение каналов : Front: L R
    Частота : 48,0 КГц
    Битовая глубина : 16 бит
    Метод сжатия : С потерями
    Размер потока : 156 Мбайт (8%)
    Выравнивание : Разделение по промежуткам
    Продолжительность промежутка : 42 мс. (1,00 видеокадр)
    Время предзагрузки промежутка : 500 мс.

    Аудио #2
    Идентификатор : 2
    Формат : AC-3
    Формат/Информация : Audio Coding 3
    Расширение режима : CM (complete main)
    Параметр Endianness формата : Big
    Идентификатор кодека : 2000
    Продолжительность : 1 ч. 53 м.
    Вид битрейта : Постоянный
    Битрейт : 192 Кбит/сек
    Каналы : 2 канала
    Расположение каналов : Front: L R
    Частота : 48,0 КГц
    Битовая глубина : 16 бит
    Метод сжатия : С потерями
    Размер потока : 156 Мбайт (8%)
    Выравнивание : Разделение по промежуткам
    Продолжительность промежутка : 42 мс. (1,00 видеокадр)
    Время предзагрузки промежутка : 500 мс.
    Скриншоты для ознакомления



    Залил: msltel
    Размер скачиваемого торрента: 1.98 GB (2122840737 Bytes)

    Высокие каблуки / Tacones lejanos / High Heels (1991) BDRip by msltel | P, L1 торрент скачать бесплатно
    загрузка...
    Рейтинг →
     (голосов: 1, оценка 5/5, голосовать можно 1 раз )

    Другие торренты по теме:

  • Высокие каблуки / Tacones lejanos / High Heels (1991) BDRip 720p by msltel | P, L1
  • Высокие каблуки / Tacones lejanos / High Heels (1991) BDRip 1080p by msltel | P, L1 скачать через торрент бесплатно
  • Высокие каблуки / Tacones lejanos (1991) HDRip от Koenig | Remastered | P
  • Высокие каблуки / Haiheel (2014) HDTVRip | L2


    • Комментарии (0):

      Информация

      Информация

        Посетители, находящиеся в группе Гости, не могут оставлять комментарии в данной новости.

        ↓ Меню



        ↓ Опрос

        А Вы добавили сайт в закладки?
        Да
        Не


        Top 10 за месяц (Фильмы)