.
Авторизация | Регистрация
Хочешь лучшие торренты? Добавь свой email!
Добавить
» » 47 ронинов / 47 Ronin (2013) DVDScr | Звук с TS скачать торрент бесплатно




    47 ронинов / 47 Ronin (2013) DVDScr | Звук с TS скачать торрент бесплатно

    Опубликовал: Админ | Дата: 27-02-2015, 11:10 | Просмотров: 293

    Детально о кино
    Русское название: 47 ронинов / 47 Ronin
    Создали в: 2013
    Категория жанра: Фэнтези, Боевик, Приключения
    Главный режиссер: Карл Ринш
    Актеры: Киану Ривз, Хироюки Санада, Ко Шибасаки, Таданобу Асано, Мин Танака, Джин Аканиши, Масаёси Ханеда, Хироси Согабэ, Такато Йонемото, Хироси Ямада


    Сюжет:
    Таинственный странник, преданный всеми, проданный в рабство, избранный судьбой вершить месть, станет одним из 47 воинов, бросивших вызов смерти. Явившись из другого мира, он восстанет против темных сил, чтобы защитить свою запретную любовь.







    Тех. данные


    Время просмотра: 01:54:46
    Снималось в: США / H2F Entertainment, Mid Atlantic Films, Moving Picture Company (MPC)
    Перевод текста: Дублированный (звук с TS)

    Файл
    Тип видео: AVI
    Качество фильма: DVDScr
    Информация о видео: Xvid, ~724 Kbit/s, 656 x 368
    Информация о звуке: MP3 2.0, 128 Kbit/s
    MI:

    Общее
    Полное имя : D:ТоррентыРЕЛИЗЫ47 ронинов .2013..avi
    Формат : AVI
    Формат/Информация : Audio Video Interleave
    Размер файла : 707 Мбайт
    Продолжительность : 1 ч. 54 м.
    Общий поток : 861 Кбит/сек
    Программа кодирования : VirtualDubMod 1.5.10.2 (build 2540/release)
    Библиотека кодирования : VirtualDubMod build 2540/release

    Видео
    Идентификатор : 0
    Формат : MPEG-4 Visual
    Профиль формата : Advanced Simple@L5
    Параметр BVOP формата : 2
    Параметр QPel формата : Нет
    Параметр GMC формата : Без точки перехода
    Параметр матрицы формата : Default (MPEG)
    Идентификатор кодека : XVID
    Идентификатор кодека/Подсказка : XviD
    Продолжительность : 1 ч. 54 м.
    Битрейт : 724 Кбит/сек
    Ширина : 656 пикс.
    Высота : 368 пикс.
    Соотношение сторон : 16:9
    Частота кадров : 23,976 кадр/сек
    Цветовое пространство : YUV
    Подвыборка цветности : 4:2:0
    Битовая глубина : 8 бит
    Тип развёртки : Прогрессивная
    Метод сжатия : С потерями
    Бит/(Пиксели*Кадры) : 0.125
    Размер потока : 594 Мбайт (84%)
    Библиотека кодирования : XviD 73

    Аудио
    Идентификатор : 1
    Формат : MPEG Audio
    Версия формата : Version 1
    Профиль формата : Layer 3
    Режим : Joint stereo
    Расширение режима : MS Stereo
    Идентификатор кодека : 55
    Идентификатор кодека/Подсказка : MP3
    Продолжительность : 1 ч. 54 м.
    Вид битрейта : Постоянный
    Битрейт : 128 Кбит/сек
    Каналы : 2 канала
    Частота : 48,0 КГц
    Метод сжатия : С потерями
    Размер потока : 105 Мбайт (15%)
    Выравнивание : Соединение по промежуткам
    Продолжительность промежутка : 42 мс. (1,00 видеокадр)
    Время предзагрузки промежутка : 504 ms
    Скриншоты для ознакомления




    Размер скачиваемого торрента: 707.00 MB (741341184 Bytes)

    47 ронинов / 47 Ronin (2013) DVDScr | Звук с TS торрент скачать бесплатно
    загрузка...
    Рейтинг →
     (голосов: 1, оценка 5/5, голосовать можно 1 раз )

    Другие торренты по теме:

  • 47 ронинов / 47 Ronin (2013) HD 720p | L1 | Трейлер
  • OST - 47 Ронинов / 47 Ronin (2013) MP3 скачать через торрент бесплатно
  • 47 ронинов / 47 Ronin (2013) CAMRip
  • 47 ронинов / 47 Ronin (2013) TS скачать через торрент бесплатно
  • 47 ронинов / 47 Ronin (2013) TS *PROPER* скачать через торрент бесплатно
  • 47 ронинов / 47 Ronin (2013) WEBRip | Звук с TS скачать через торрент бесплатно
  • 47 ронинов / 47 Ronin (2013) WEBRip-AVC | Звук с TS *PROPER* скачать через торрент бесплатно
  • 47 ронинов / 47 Ronin (2013) WEB-DLRip-AVC | Звук с TS скачать через торрент бесплатно


    • Комментарии (0):

      Информация

      Информация

        Посетители, находящиеся в группе Гости, не могут оставлять комментарии в данной новости.

        ↓ Меню



        ↓ Опрос

        А Вы добавили сайт в закладки?
        Да
        Не


        Top 10 за месяц (Фильмы)