.
Авторизация | Регистрация
Хочешь лучшие торренты? Добавь свой email!
Добавить
» » Сила веры / Leap of Faith (1992) WEB-DLRip от Leon-masl скачать торрент бесплатно




    Сила веры / Leap of Faith (1992) WEB-DLRip от Leon-masl скачать торрент бесплатно

    Опубликовал: Админ | Дата: 27-02-2015, 11:10 | Просмотров: 230



    Детально о кино
    Русское название: Сила веры
    Русское название в мировом прокате: Leap of Faith
    Создали в: 1992
    Категория жанра: комедия
    Главный режиссер: Ричард Пирс / Richard Pearce
    Актеры: Стив Мартин /Steve Martin/, Дебра Уингер /Debra Winger/, Лолита Давидович /Lolita Davidovich/, Лукас Хаас /Lukas Haas/, Мит Лоаф /Meat Loaf/, Филип Сеймор Хоффман /Philip Seymour Hoffman/, М. С. Гэйни /M. C. Gainey/, Ла Чанзе /La Chanze/, Делорес Холл /Delores Hall/, Джон Тоулз-Бей /John Toles-Bey/, Альбертина Уокер /Albertina Walker/, Лиам Нисон /Liam Neeson/

    Сюжет фильма:
    Стив Мартин в роли религиозного проповедника, колесящего с труппой евангелистов по стране и дающего представления везде, где удастся. Ну прямо, как цирк-шапито. Но в цирке-шапито люди платят за представление, никак не связанное с вопросами веры. Если фокусник показывает фокусы, люди знают, что это ловкость рук и никакого мошенничества. В данном случае, вместо карт и ловкости рук используются компьютерные данные о жителях городка, намеченного к обработке, что совсем не лишнее для проповедника, проникающего в души людей, чтобы затронуть их самые тонкие струнки.



    Снималось в: США
    Время просмотра: 01:47:59
    Перевод текста: Профессиональный (двухголосый, закадровый)

    Файл
    Кодек для видео: XviD
    Качество фильма: WEB-DLRip
    Информация о видео: 720x400, 23,976 fps, 1735 kbps
    Информация о звуке: AC3, 2 ch, 192 kbps
    MI
    Общее
    Полное имя : Leap of Faith.1992.WEB-DLRip.avi
    Формат : AVI
    Формат/Информация : Audio Video Interleave
    Размер файла : 1,46 Гбайт
    Продолжительность : 1 ч. 47 м.
    Общий поток : 1937 Кбит/сек
    Программа кодирования : VirtualDubMod 1.5.10.3 | www.virtualdub-fr.org || (build 2550/release)
    Библиотека кодирования : VirtualDubMod build 2550/release

    Видео
    Идентификатор : 0
    Формат : MPEG-4 Visual
    Профиль формата : Advanced Simple@L5
    Параметр BVOP формата : 1
    Параметр QPel формата : Нет
    Параметр GMC формата : Без точки перехода
    Параметр матрицы формата : Выборочная
    Идентификатор кодека : XVID
    Идентификатор кодека/Подсказка : XviD
    Продолжительность : 1 ч. 47 м.
    Битрейт : 1735 Кбит/сек
    Ширина : 720 пикс.
    Высота : 400 пикс.
    Соотношение сторон : 16:9
    Частота кадров : 23,976 кадр/сек
    Цветовое пространство : YUV
    Подвыборка цветности : 4:2:0
    Битовая глубина : 8 бит
    Тип развёртки : Прогрессивная
    Метод сжатия : С потерями
    Бит/(Пиксели*Кадры) : 0.251
    Размер потока : 1,31 Гбайт (90%)
    Библиотека кодирования : XviD 73

    Аудио
    Идентификатор : 1
    Формат : AC-3
    Формат/Информация : Audio Coding 3
    Расширение режима : CM (complete main)
    Идентификатор кодека : 2000
    Продолжительность : 1 ч. 47 м.
    Вид битрейта : Постоянный
    Битрейт : 192 Кбит/сек
    Канал(ы) : 2 канала(ов)
    Расположение каналов : Front: L R
    Частота : 48,0 КГц
    Битовая глубина : 16 бит
    Метод сжатия : С потерями
    Размер потока : 148 Мбайт (10%)
    Выравнивание : Разделение по промежуткам
    Продолжительность промежутка : 42 мс. (1,00 видеокадр)
    Время предзагрузки промежутка : 500 ms
    Скриншоты для ознакомления


    Релиз подготовил: Leon-masl
    Залил: leon-masl
    Размер скачиваемого торрента: 1.46 GB (1568610304 Bytes)

    Сила веры / Leap of Faith (1992) WEB-DLRip от Leon-masl торрент скачать бесплатно
    загрузка...
    Рейтинг →
     (голосов: 1, оценка 3/5, голосовать можно 1 раз )

    Другие торренты по теме:

  • Сила Веры - Дискография (2003-2011) MP3, WMA
  • Сила Веры (2013) SATRip
  • Сила Веры (2013) DVB


    • Комментарии (0):

      Информация

      Информация

        Посетители, находящиеся в группе Гости, не могут оставлять комментарии в данной новости.

        ↓ Меню



        ↓ Опрос

        А Вы добавили сайт в закладки?
        Да
        Не


        Top 10 за месяц (Фильмы)