.
Авторизация | Регистрация
Хочешь лучшие торренты? Добавь свой email!
Добавить
» » Мотель / Сумка / The Bag Man (2014) HDRip | L1 скачать торрент бесплатно




    Мотель / Сумка / The Bag Man (2014) HDRip | L1 скачать торрент бесплатно

    Опубликовал: Админ | Дата: 27-02-2015, 11:10 | Просмотров: 226

    Детально о кино
    Русское название: Мотель / Сумка / The Bag Man
    Создали в: 2014
    Категория жанра: Триллер, криминал
    Главный режиссер: Дэвид Гровик
    Актеры: Роберт Де Ниро, Джон Кьюсак, Ребекка Да Коста, Криспин Гловер, Доминик Пёрселл, Стикки Фингаз, Мартин Клебба, Дэвид Шамбрис, Чезз Менендес, Йен Маклафлин


    Сюжет:
    Наемный убийца Джек Стаффорд получает несложное задание: приехать в заштатный мотель в 300 милях от Питтсбурга, получить сумку с таинственным содержимым и оставаться в номере, пока за грузом не приедут. Условие одно: ни при каких обстоятельствах не заглядывать внутрь сумки. Но поручение оказывается простым лишь на первый взгляд. Вскоре киллер понимает, что за доверенным ему предметом охотятся коррумпированные агенты ФБР, продажные полицейские, провинциальные гангстеры и кровожадный карлик-цыган из Сербии. И каждый хочет всадить в Джека пулю. Число жертв растет на глазах, и дожить до рассвета смогут далеко не все постояльцы мотеля.






    Тех. данные


    Время просмотра: 01:48:45
    Снималось в: США, Багамы
    Перевод текста: Одноголосный закадровый qwerty

    Файл
    Тип видео: AVI
    Качество фильма: HDRip
    Информация о видео: XviD MPEG-4 Visual 720x304 (2.37:1), 23.980 fps, XviD build 50 ~767 kbps avg, 0.15 bit/pixel
    Информация о звуке: Audio Coding 3 48 kHz, AC3 Dolby Digital, 2/0 (L,R) ch, ~128 kbps
    MI:

    General
    Complete name : E:ЗагрузкиМотель.2014.L1.HDRip.avi
    Format : AVI
    Format/Info : Audio Video Interleave
    File size : 705 MiB
    Duration : 1h 48mn
    Overall bit rate : 906 Kbps
    Writing application : Lavf52.93.0

    Video
    ID : 0
    Format : xvid
    Codec ID : xvid
    Duration : 1h 48mn
    Bit rate : 768 Kbps
    Width : 720 pixels
    Height : 304 pixels
    Display aspect ratio : 2.35:1
    Frame rate : 23.976 fps
    Bits/(Pixel*Frame) : 0.146
    Stream size : 597 MiB (85%)

    Audio
    ID : 1
    Format : AC-3
    Format/Info : Audio Coding 3
    Mode extension : CM (complete main)
    Format settings, Endianness : Big
    Codec ID : 2000
    Duration : 1h 48mn
    Bit rate mode : Constant
    Bit rate : 128 Kbps
    Channel(s) : 2 channels
    Channel positions : Front: L R
    Sampling rate : 48.0 KHz
    Bit depth : 16 bits
    Compression mode : Lossy
    Stream size : 99.6 MiB (14%)
    Alignment : Aligned on interleaves
    Interleave, duration : 32 ms (0.77 video frame)
    Interleave, preload duration : 64 ms
    Скриншоты для ознакомления



    Размер скачиваемого торрента: 705.11 MB (739362986 Bytes)

    Мотель / Сумка / The Bag Man (2014) HDRip | L1 торрент скачать бесплатно
    загрузка...
    Рейтинг →
     (голосов: 1, оценка 4/5, голосовать можно 1 раз )

    Другие торренты по теме:

  • Адский мотель / Мотель Ад / Motel Hell (1980) BDRip-AVC от olegek70 | A
  • Мотель Бейтса (Мотель Бэйтс) / Bates Motel (2013) WEB-DL 1080p от MediaClub
  • Мотель Бейтса (Мотель Бэйтс) / Bates Motel (2013) WEB-DL 720p от MediaClub
  • Мотель Бейтса / Мотель Бэйтс / Bates Motel (2013) WEB-DLRip | LostFilm
  • Мотель Бейтса / Мотель Бейтсов / Bates Motel (2014) WEB-DLRip | NewStudio скачать через торрент бесплатно
  • Мотель Бейтса / Мотель Бейтсов / Bates Motel (2014) WEB-DLRip | LostFilm
  • Мотель Бейтса / Мотель Бейтсов / Bates Motel (2014) WEB-DLRip от Scarabey | LostFilm
  • Мотель Бейтса / Мотель Бейтсов / Bates Motel (2014) WEB-DL 720p | LostFilm, NewStudio


    • Комментарии (0):

      Информация

      Информация

        Посетители, находящиеся в группе Гости, не могут оставлять комментарии в данной новости.

        ↓ Меню



        ↓ Опрос

        А Вы добавили сайт в закладки?
        Да
        Не


        Top 10 за месяц (Фильмы)