.
Авторизация | Регистрация
Хочешь лучшие торренты? Добавь свой email!
Добавить
» » Инициирование / The Invoking / Sader Ridge (2013) WEB-DL 720p от CINEMANIA | L2 скачать торрент бесплатно




    Инициирование / The Invoking / Sader Ridge (2013) WEB-DL 720p от CINEMANIA | L2 скачать торрент бесплатно

    Опубликовал: Админ | Дата: 27-02-2015, 11:10 | Просмотров: 246



    Детально о кино
    Русское название: Инициирование
    Русское название в мировом прокате: The Invoking / Sader Ridge
    Создали в: 2013
    Категория жанра: триллер
    Главный режиссер: Джереми Берг
    Актеры: Брэндон Энтони, Карсон Холден, Д;Анжело Мидли, Трин Миллер, Энди Норрис, Рафаэль Сигел, Джейкоб Томмила, Джош Труакс

    Сюжет фильма:
    Саманта Харрис неожиданно получает в наследство от родственников, о которых она ничего не знала, дом в сельской местности. Вместе с тремя друзьями Сэм отправляется туда, чтобы осмотреть своё новое имущество. Вскоре по прибытии на место девушка начинает испытывать ужасные видения. Существование Сэм, измученной силами зла, превращается в сплошной кошмар, и она вынуждена сражаться с демонами из своего прошлого...



    Снималось в: США
    Время просмотра: 01:22:22
    Тип перевода: Любительское (двухголосое) DeadSno den904
    перевод на русский язык МЕГАПЫХАРЬ

    Файл
    Тип видео: MKV
    Качество фильма: WEB-DL 720p PHD
    Информация о видео: 3853 kb/s, 1280x716
    Информация о звуке: Russian / English: AC3, 384 kb/s (6 ch)
    Субтитры: English
    Дополнительно: Сохранены оригинальные чаптеры как на Blu-ray
    Размер скачиваемого торрента: 2.72 GB
    Скачать: Сэмпл

    Релиз группы:



    NFO
    Общее
    The.Invoking.2013.WEB-DL.720p.CINEMANIA.mkv
    Формат : Matroska
    Версия формата : Version 4 / Version 2
    Размер файла : 2,72 Гбайт
    Продолжительность : 1 ч. 22 м.
    Общий поток : 4714 Кбит/сек
    Название фильма : Release Group CINEMANIA
    Дата кодирования : UTC 2014-03-17 21:34:24
    Программа кодирования : mkvmerge v6.8.0 (;Theme for Great Cities;) 64bit built on Mar 2 2014 21:34:26
    Библиотека кодирования : libebml v1.3.0 libmatroska v1.4.1

    Видео
    Идентификатор : 1
    Формат : AVC
    Формат/Информация : Advanced Video Codec
    Профиль формата : High@L3.1
    Параметр CABAC формата : Нет
    Параметр ReFrames формата : 2 кадра
    Идентификатор кодека : V_MPEG4/ISO/AVC
    Продолжительность : 1 ч. 22 м.
    Битрейт : 3853 Кбит/сек
    Ширина : 1280 пикселей
    Высота : 716 пикселей
    Соотношение сторон : 16:9
    Режим частоты кадров : Постоянный
    Частота кадров : 23,976 кадра/сек
    Цветовое пространство : YUV
    Субдискретизация насыщенности : 4:2:0
    Битовая глубина : 8 бит
    Тип развёртки : Прогрессивная
    Бит/(Пиксели*Кадры) : 0.175
    Размер потока : 2,22 Гбайт (82%)
    Заголовок : Release Group CINEMANIA
    Язык : English
    Default : Да
    Forced : Нет
    Основные цвета : BT.709
    Характеристики трансфера : BT.709
    Коэффициенты матрицы : BT.709

    Аудио #1
    Идентификатор : 2
    Формат : AC-3
    Формат/Информация : Audio Coding 3
    Расширение режима : CM (complete main)
    Параметр Endianness формата : Big
    Идентификатор кодека : A_AC3
    Продолжительность : 1 ч. 22 м.
    Вид битрейта : Постоянный
    Битрейт : 384 Кбит/сек
    Каналы : 6 каналов
    Расположение каналов : Front: L C R, Side: L R, LFE
    Частота : 48,0 КГц
    Битовая глубина : 16 бит
    Метод сжатия : С потерями
    Размер потока : 227 Мбайт (8%)
    Заголовок : Влад и Снежинка
    Язык : Russian
    Default : Да
    Forced : Да

    Аудио #2
    Идентификатор : 3
    Формат : AC-3
    Формат/Информация : Audio Coding 3
    Расширение режима : CM (complete main)
    Параметр Endianness формата : Big
    Идентификатор кодека : A_AC3
    Продолжительность : 1 ч. 22 м.
    Вид битрейта : Постоянный
    Битрейт : 384 Кбит/сек
    Каналы : 6 каналов
    Расположение каналов : Front: L C R, Side: L R, LFE
    Частота : 48,0 КГц
    Битовая глубина : 16 бит
    Метод сжатия : С потерями
    Размер потока : 227 Мбайт (8%)
    Язык : English
    Default : Нет
    Forced : Нет

    Текст
    Идентификатор : 4
    Формат : UTF-8
    Идентификатор кодека : S_TEXT/UTF8
    Идентификатор кодека/Информация : UTF-8 Plain Text
    Язык : English
    Default : Нет
    Forced : Нет

    Меню
    00:00:00.000 : en:Are We There Yet?
    00:07:50.000 : en:Titles
    00:17:04.000 : en:Ghost Stories
    00:32:22.000 : en:Sader Ridge
    00:52:17.000 : en:Sam;s Father
    01:05:46.000 : en:Dig
    01:17:52.000 : en:Missing Kids
    01:20:27.000 : en:Credits

    Залил: DGEKIGAN
    Размер скачиваемого торрента: 2.72 GB (2919514022 Bytes)

    Инициирование / The Invoking / Sader Ridge (2013) WEB-DL 720p от CINEMANIA | L2 торрент скачать бесплатно
    загрузка...
    Рейтинг →
     (голосов: 1, оценка 4/5, голосовать можно 1 раз )

    Другие торренты по теме:

  • Инициирование / The Invoking / Sader Ridge (2013) WEB-DLRip от CINEMANIA | L2
  • Инициирование / Sader Ridge (The Invoking) / 2013 / ЛД / WEB-DLRip (720p)


    • Комментарии (0):

      Информация

      Информация

        Посетители, находящиеся в группе Гости, не могут оставлять комментарии в данной новости.

        ↓ Меню



        ↓ Опрос

        А Вы добавили сайт в закладки?
        Да
        Не


        Top 10 за месяц (Фильмы)