.
Авторизация | Регистрация
Хочешь лучшие торренты? Добавь свой email!
Добавить
» » Карточный домик / House of Cards (2013) HDTV 1080i | Первый канал скачать через торрент бесплатно




    Карточный домик / House of Cards (2013) HDTV 1080i | Первый канал скачать через торрент бесплатно

    Опубликовал: Админ | Дата: 27-02-2015, 11:10 | Просмотров: 500


    Детально о кино
    Русское название: Карточный домик / House of Cards
    Создали в: 2013
    Категория жанра: Драма
    Главный режиссеры: Джеймс Фоули, Дэвид Финчер, Карл Франклин
    Актеры: Кевин Спейси, Робин Райт, Кейт Мара, Кори Столл, Майкл Келли, Сакина Джэффри, Жаклин Джонс, Рюэл Пендлтон, Гилберт Сото, Сандрин Холт


    Сюжет:
    Амбициозный конгрессмен от Демократической партии Фрэнк Андервуд в обмен на обещание сделать его госсекретарём помогает Гаррету Уокеру стать президентом США. Однако после выборов глава администрации президента Линда Васкез сообщает Андервуду, что он не получит должность. Взбешенные предательством Фрэнк и его жена готовы пойти на всё, чтобы отомстить новоиспечённому президенту.



    Релиз группа:





    Тех. данные

    Время просмотра: 13 ~ 00:55:00
    Снималось в: США / Media Rights Capital, Panic Pictures (II), Trigger Street Productions
    Перевод текста: Профессиональный (многоголосый, закадровый) - Первый канал

    Файл
    Тип видео: TS
    Качество фильма: HDTV 1080i
    Информация о видео: MPEG-4 AVC/H.264, ~8577 Кбит/сек, 1920x1080
    Информация о звуке: AC3 2.0, 384 Кбит/сек
    MI:
    Формат : MPEG-TS
    Размер файла : 3,43 Гбайт
    Продолжительность : 52 м.
    Режим общего битрейта : Переменный
    Общий поток : 9431 Кбит/сек

    Видео
    Идентификатор : 101 (0x65)
    Идентификатор меню : 1 (0x1)
    Формат : AVC
    Формат/Информация : Advanced Video Codec
    Профиль формата : High@L4.0
    Параметр CABAC формата : Да
    Параметр ReFrames формата : 3 кадра
    Идентификатор кодека : 27
    Продолжительность : 52 м.
    Битрейт : 8577 Кбит/сек
    Ширина : 1920 пикселей
    Высота : 1080 пикселей
    Соотношение сторон : 16:9
    Частота кадров : 25,000 кадров/сек
    Стандарт вещания : Component
    Цветовое пространство : YUV
    Субдискретизация насыщенности : 4:2:0
    Битовая глубина : 8 бит
    Тип развёртки : Чересстрочная
    Порядок развёртки : Верхнее поле первое
    Бит/(Пиксели*Кадры) : 0.165
    Размер потока : 3,12 Гбайт (91%)
    Основные цвета : BT.709
    Характеристики трансфера : BT.709
    Коэффициенты матрицы : BT.709

    Аудио
    Идентификатор : 111 (0x6F)
    Идентификатор меню : 1 (0x1)
    Формат : AC-3
    Формат/Информация : Audio Coding 3
    Расширение режима : CM (complete main)
    Параметр Endianness формата : Big
    Идентификатор кодека : 6
    Продолжительность : 52 м.
    Вид битрейта : Постоянный
    Битрейт : 384 Кбит/сек
    Каналы : 2 канала
    Расположение каналов : Front: L R
    Частота : 48,0 КГц
    Битовая глубина : 16 бит
    Метод сжатия : С потерями
    Размер потока : 143 Мбайт (4%)
    Язык : Russian
    Скриншоты для ознакомления




    Размер скачиваемого торрента: 41.11 GB (44140213372 Bytes)

    Карточный домик / House of Cards (2013) HDTV 1080i | Первый канал скачать через торрент бесплатно
    загрузка...
    Рейтинг →
     (голосов: 1, оценка 5/5, голосовать можно 1 раз )

    Другие торренты по теме:

  • Карточный домик / House of Cards (2013) WEBRip | Первый Канал
  • OST - Карточный домик / House of Cards (2013) MP3
  • Карточный Домик / House of Cards (2013) HDRip | Первый канал
  • Карточный домик / House of Cards (2013) HDRip от Scarabey | Первый канал скачать через торрент бесплатно
  • Карточный Домик / House of Cards (2014) WEBRip | Paradox скачать через торрент бесплатно
  • Карточный Домик / House of Cards (2014) WEBRip 1080p | Paradox скачать через торрент бесплатно
  • Карточный Домик / House of Cards (2014) WEBRip 720p | NewStudio
  • Карточный Домик / House of Cards (2014) WEBRip | NewStudio


    • Комментарии (0):

      Информация

      Информация

        Посетители, находящиеся в группе Гости, не могут оставлять комментарии в данной новости.

        ↓ Меню



        ↓ Опрос

        А Вы добавили сайт в закладки?
        Да
        Не


        Top 10 за месяц (Фильмы)