.
Авторизация | Регистрация
Хочешь лучшие торренты? Добавь свой email!
Добавить
» » Мелисса и Джоуи / Melissa Joey (2012) WEB-DLRip | Fox Life скачать через торрент бесплатно




    Мелисса и Джоуи / Melissa Joey (2012) WEB-DLRip | Fox Life скачать через торрент бесплатно

    Опубликовал: Админ | Дата: 27-02-2015, 11:10 | Просмотров: 252

    Мелисса и Джоуи / Melissa Joey
    Сезон: 2 / Серии: 1-15 (15)







    Создали в: 2012
    Снималось в: США
    Категория жанра: Комедия
    Время просмотра: ~00:21:45 серия
    Перевод текста: профессиональный многоголосый закадровый /Fox Life/
    Русские субтитры: нет


    Над релизом работали: 729Jetsam

    Sample:http://multi-up.com/779457





    Качество фильма: WEB-DLRip
    Тип видео: AVI
    Информация о видео кодек: XviD
    Информация о звуке кодек: MP3
    Информация о видео: XviD, 624x352, 23,976, ~1000 Kbps, 0.187 b/px
    Информация о звуке RUS: MP3, 128 Kbps, 2 channels, 48 KHz
    Информация о звуке ENG: MP3, 128 Kbps, 2 channels, 48 KHz






    MI

    General
    Complete name : I:Мелисса и Джоуи Сезон 2 (FoxLife)MelissaJoey.s02e01.avi
    Format : AVI
    Format/Info : Audio Video Interleave
    File size : 201 MiB
    Duration : 21mn 29s
    Overall bit rate : 1 308 Kbps
    Writing application : VirtualDubMod 1.5.10.3 | www.virtualdub-fr.org || (build 2550/release)
    Writing library : VirtualDubMod build 2550/release

    Video
    ID : 0
    Format : MPEG-4 Visual
    Format profile : Advanced Simple@L5
    Format settings, BVOP : 1
    Format settings, QPel : No
    Format settings, GMC : No warppoints
    Format settings, Matrix : Default (MPEG)
    Codec ID : XVID
    Codec ID/Hint : XviD
    Duration : 21mn 29s
    Bit rate : 1 038 Kbps
    Width : 624 pixels
    Height : 352 pixels
    Display aspect ratio : 16:9
    Frame rate : 23.976 fps
    Color space : YUV
    Chroma subsampling : 4:2:0
    Bit depth : 8 bits
    Scan type : Progressive
    Compression mode : Lossy
    Bits/(Pixel*Frame) : 0.197
    Stream size : 160 MiB (79%)
    Writing library : XviD 63

    Audio #1
    ID : 1
    Format : MPEG Audio
    Format version : Version 1
    Format profile : Layer 3
    Mode : Joint stereo
    Mode extension : MS Stereo
    Codec ID : 55
    Codec ID/Hint : MP3
    Duration : 21mn 29s
    Bit rate mode : Constant
    Bit rate : 128 Kbps
    Channel(s) : 2 channels
    Sampling rate : 48.0 KHz
    Compression mode : Lossy
    Stream size : 19.7 MiB (10%)
    Alignment : Aligned on interleaves
    Interleave, duration : 42 ms (1.00 video frame)
    Interleave, preload duration : 504 ms
    Writing library : LAME3.98r
    Encoding settings : -m j -V 4 -q 0 -lowpass 17 -b 128

    Audio #2
    ID : 2
    Format : MPEG Audio
    Format version : Version 1
    Format profile : Layer 3
    Mode : Joint stereo
    Mode extension : MS Stereo
    Codec ID : 55
    Codec ID/Hint : MP3
    Duration : 21mn 29s
    Bit rate mode : Constant
    Bit rate : 128 Kbps
    Channel(s) : 2 channels
    Sampling rate : 48.0 KHz
    Compression mode : Lossy
    Stream size : 19.7 MiB (10%)
    Alignment : Aligned on interleaves
    Interleave, duration : 42 ms (1.00 video frame)
    Interleave, preload duration : 504 ms

    Скриншоты для ознакомления







    Размер скачиваемого торрента: 2.94 GB (3160532992 Bytes)

    Мелисса и Джоуи / Melissa Joey (2012) WEB-DLRip | Fox Life скачать через торрент бесплатно
    загрузка...
    Рейтинг →
     (голосов: 1, оценка 3/5, голосовать можно 1 раз )

    Другие торренты по теме:

  • Мелисса и Джоуи / Melissa Joey (2013-2014) HDTVRip | MUGEN скачать через торрент бесплатно
  • Мелисса и Джоуи / Melissa Joey (2010) WEB-DLRip | Fox Life скачать через торрент бесплатно
  • Melissa K. And the Heart of Gold / Мелисса К. и Золотое Сердце
  • Мелисса К. и Золотое Сердце / Melissa K. And the Heart of Gold (2014) РС


    • Комментарии (0):

      Информация

      Информация

        Посетители, находящиеся в группе Гости, не могут оставлять комментарии в данной новости.

        ↓ Меню



        ↓ Опрос

        А Вы добавили сайт в закладки?
        Да
        Не


        Top 10 за месяц (Фильмы)