.
Авторизация | Регистрация
Хочешь лучшие торренты? Добавь свой email!
Добавить
» » Программа защиты принцесс / Princess Protection Program (2009) HDTVRip-AVC | iPhone | D скачать через торрент бесплатно




    Программа защиты принцесс / Princess Protection Program (2009) HDTVRip-AVC | iPhone | D скачать через торрент бесплатно

    Опубликовал: Админ | Дата: 27-02-2015, 11:10 | Просмотров: 291



    Программа защиты принцесс / Princess Protection Program (2009) HDTVRip-AVC | iPhone | D

    Русское название: Программа защиты принцесс
    Русское название в мировом прокате: Princess Protection Program
    Создали в: 2009
    Категория жанра: драма, комедия, семейный
    Главный режиссер: Эллисон Лидди
    Актеры: Деми Ловато, Селена Гомес, Николас Браун, Молли Хэйгэн, Джонни Рэй, Джейми Чунг, Саманта Дроук, Роберт Адамсон, Кевин Шмидт, Дейл Дикки

    Сюжет фильма:
    Когда крошечную страну захватывает диктатор, молодая Принцесса Рози, арестована в соответствии с Программой защиты принцесс. Она сбегает далеко в деревеньку Висконсин, где она должна изучить и обмыслить свою жизнь как нормальный американский подросток. В процессе приспосабливания к новой жизни, Рози меняется...



    Снималось в: США
    Киностудия: Disney Channel, Rainforest Productions
    Время просмотра: 01:28:12
    Перевод текста: Русский дублированный

    Файл
    Кодек для видео: H.264
    Качество фильма: HDTVRip-AVC 480p
    Информация о видео: 640x480@852x480 (16:9) at 23.976 fps, AVC at 1630 kbps
    Информация о звуке:
    1: АAС 2.0 129 kbps - Русский дублированный
    1: АAС 2.0 140 kbps - Английский
    Субтитры: Русские, Английские

    MI

    General
    Complete name : C:CREATE480outPrincess Protection Program.2009 (SD).m4v
    Format : MPEG-4
    Codec ID : M4V
    File size : 1.17 GiB
    Duration : 1h 29mn
    Overall bit rate mode : Variable
    Overall bit rate : 1 881 Kbps
    Movie name : Программа защиты принцесс
    Performer : Allison Liddi-Brown (as Allison Liddi)
    Genre : Comedy
    Recorded date : UTC 2009-05-20 08:00:00
    Encoded date : UTC 2014-03-16 11:13:05
    Tagged date : UTC 2014-03-16 11:19:15
    Copyright : Disney Channel, Rainforest Productions
    Cover : Yes
    Comment : Royality meets reality
    iTunEXTC : mpaa|PG|200|

    hdvd : 0
    stik : 0
    cnID : 407633
    xid : Apple:vendor_id:2009-407633

    Video
    ID : 1
    Format : AVC
    Format/Info : Advanced Video Codec
    Format profile : Baseline@L3.0
    Format settings, CABAC : No
    Format settings, ReFrames : 2 frames
    Codec ID : avc1
    Codec ID/Info : Advanced Video Coding
    Duration : 1h 28mn
    Bit rate : 1 630 Kbps
    Maximum bit rate : 6 892 Kbps
    Width : 640 pixels
    Height : 480 pixels
    Display aspect ratio : 16:9
    Frame rate mode : Constant
    Frame rate : 23.976 fps
    Color space : YUV
    Chroma subsampling : 4:2:0
    Bit depth : 8 bits
    Scan type : Progressive
    Bits/(Pixel*Frame) : 0.221
    Stream size : 1.00 GiB (86%)
    Title : Princess Protection Program _2009_
    Writing library : x264 core 140 r2377 40 929f149 tMod 8-bit@4:2:0 X86_64
    Encoding settings : cabac=0 / ref=2 / deblock=1:-1:-1 / analyse=0x1:0x131 / me=umh / subme=7 / psy=1 / fade_compensate=0.50 / psy_rd=0.95:0.15 / mixed_ref=1 / me_range=32 / chroma_me=1 / trellis=2 / 8x8dct=0 / cqm=0 / deadzone=21,11 / fast_pskip=0 / chroma_qp_offset=-3 / threads=12 / lookahead_threads=2 / sliced_threads=0 / nr=0 / decimate=0 / interlaced=0 / bluray_compat=0 / constrained_intra=0 / fgo=0 / bframes=0 / weightp=0 / keyint=250 / keyint_min=23 / scenecut=40 / intra_refresh=0 / rc_lookahead=96 / rc=crf / mbtree=1 / crf=21.0000 / qcomp=0.60 / qpmin=0:0:0 / qpmax=69:69:69 / qpstep=4 / vbv_maxrate=5000 / vbv_bufsize=5000 / crf_max=0.0 / nal_hrd=none / filler=0 / ip_ratio=1.30 / aq=4:0.90 / aq-sensitivity=10.00 / aq-factor=1.00:1.00:1.00 / aq2=0 / aq3=0
    Language : English
    Encoded date : UTC 2014-03-16 11:13:05
    Tagged date : UTC 2014-03-16 11:13:36
    Matrix coefficients : BT.709

    Audio #1
    ID : 2
    Format : AAC
    Format/Info : Advanced Audio Codec
    Format profile : LC
    Codec ID : 40
    Duration : 1h 29mn
    Bit rate mode : Variable
    Bit rate : 125 Kbps
    Maximum bit rate : 166 Kbps
    Channel(s) : 2 channels
    Channel positions : Front: L R
    Sampling rate : 48.0 KHz
    Compression mode : Lossy
    Stream size : 79.8 MiB (7%)
    Title : Dub
    Language : Russian
    Encoded date : UTC 2014-03-16 11:03:15
    Tagged date : UTC 2014-03-16 11:13:36

    Audio #2
    ID : 3
    Format : AAC
    Format/Info : Advanced Audio Codec
    Format profile : LC
    Codec ID : 40
    Duration : 1h 28mn
    Bit rate mode : Variable
    Bit rate : 139 Kbps
    Maximum bit rate : 173 Kbps
    Channel(s) : 2 channels
    Channel positions : Front: L R
    Sampling rate : 48.0 KHz
    Compression mode : Lossy
    Stream size : 88.0 MiB (7%)
    Title : Original
    Language : English
    Encoded date : UTC 2014-03-16 11:09:55
    Tagged date : UTC 2014-03-16 11:13:36

    Text #1
    ID : 4
    Format : Timed Text
    Muxing mode : sbtl
    Codec ID : tx3g
    Duration : 1h 27mn
    Bit rate mode : Variable
    Bit rate : 118 bps
    Stream size : 76.0 KiB (0%)
    Title : Subtitle Russian
    Language : Russian
    Encoded date : UTC 2014-03-16 11:13:36
    Tagged date : UTC 2014-03-16 11:13:36

    Text #2
    ID : 5
    Format : Timed Text
    Muxing mode : sbtl
    Codec ID : tx3g
    Duration : 1h 28mn
    Bit rate mode : Variable
    Bit rate : 87 bps
    Stream size : 56.2 KiB (0%)
    Title : Subtitle English
    Language : English
    Encoded date : UTC 2014-03-16 11:13:36
    Tagged date : UTC 2014-03-16 11:13:36

    Menu
    ID : 6
    Codec ID : text
    Duration : 1h 29mn
    Encoded date : UTC 2014-03-16 11:14:11
    Tagged date : UTC 2014-03-16 11:14:11
    Bit rate mode : VBR
    Duration_LastFrame : -38805
    iTunes tags

    Sort Name: Princess Protection Program
    XID: Apple:vendor_id:2009-407633
    Content ID: 407633
    Copyright: Disney Channel, Rainforest Productions
    ScreenWriters: Энни Деянг, Дэвид Моргасен
    Producers: Дуглас Слоун, Даниэль Вайнсток
    Director: Эллисон Лидди
    Cast: Деми Ловато, Селена Гомес, Николас Браун, Молли Хэйгэн, Джонни Рэй, Джейми Чунг, Саманта Дроук, Роберт Адамсон, Кевин Шмидт, Дейл Дикки, Лина Иванова, Вероника Саркисова, Александр Хошабаев, Марианна Шульц, Илья Хвостиков
    Rating: PG
    Long Deion: Когда крошечную страну захватывает диктатор, молодая Принцесса Рози, арестована в соответствии с Программой защиты принцесс. Она сбегает далеко в деревеньку Висконсин, где она должна изучить и обмыслить свою жизнь как нормальный американский подросток. В процессе приспосабливания к новой жизни, Рози меняется...
    Deion: Когда крошечную страну захватывает диктатор, молодая Принцесса Рози, арестована в соответствии с Программой защиты принцесс. Она сбегает далеко в деревеньку Висконсин, где она должна изучить и обмыслить свою жизнь как нормальный американский подр
    Release Date: 2009-05-20T08:00:00Z
    Genre: Comedy
    Artist: Allison Liddi-Brown (as Allison Liddi)
    Name: Программа защиты принцесс
    Comments: Royality meets reality
    x264

    x264 info: frame I:1702 Avg QP:20.33 size: 32755
    x264 info: frame P:125190 Avg QP:22.69 size: 8168
    x264 info: mb I I16..4: 20.1% 0.0% 79.9%
    x264 info: mb P I16..4: 1.4% 0.0% 1.9% P16..4: 57.6% 20.3% 9.4% 1.3% 0.4% skip: 7.8%
    x264 info: coded y,uvDC,uvAC intra: 61.3% 79.1% 42.1% inter: 38.1% 47.7% 13.0%
    x264 info: i16 v,h,dc,p: 51% 13% 8% 28%
    x264 info: i4 v,h,dc,ddl,ddr,vr,hd,vl,hu: 33% 13% 12% 6% 8% 10% 6% 8% 4%
    x264 info: i8c dc,h,v,p: 49% 12% 31% 8%
    x264 info: ref P L0: 81.6% 18.4%
    x264 info: kb/s:1630.02




    Залил: gekka
    Размер скачиваемого торрента: 1.17 GB (1260536964 Bytes)

    Программа защиты принцесс / Princess Protection Program (2009) HDTVRip-AVC | iPhone | D скачать через торрент бесплатно
    загрузка...
    Рейтинг →
     (голосов: 1, оценка 4/5, голосовать можно 1 раз )

    Другие торренты по теме:

  • Сегодня. Итоговая программа (2013) SATRip
  • Воскресное время. Информационно-аналитическая программа (2013) SATRip
  • Программа Время (1989) TVRip
  • Wi Fi Pirate 13 программа для взлома Wi Fi (2013) PC
  • Программа Время (1987) TVRip
  • Шоу-программа Живые (2012-2013) MP3
  • Институт медико-биологических информационных технологий - Апк-программа Кардиотон (2010) FLAC
  • Институт медико-биологических информационных технологий - Апк-программа Фигура (2010) WAV


    • Комментарии (0):

      Информация

      Информация

        Посетители, находящиеся в группе Гости, не могут оставлять комментарии в данной новости.

        ↓ Меню



        ↓ Опрос

        А Вы добавили сайт в закладки?
        Да
        Не


        Top 10 за месяц (Фильмы)