.
Авторизация | Регистрация
Хочешь лучшие торренты? Добавь свой email!
Добавить
» » Лузеры / The Losers (2010) HDRip-AVC | iPhone | D скачать через торрент бесплатно




    Лузеры / The Losers (2010) HDRip-AVC | iPhone | D скачать через торрент бесплатно

    Опубликовал: Админ | Дата: 27-02-2015, 11:10 | Просмотров: 331



    Лузеры / The Losers (2010) HDRip-AVC | iPhone | D

    Русское название: Лузеры
    Русское название в мировом прокате: The Losers
    Создали в: 2010
    Категория жанра: боевик, триллер, комедия, криминал, детектив, приключения
    Главный режиссер: Сильвен Уайт
    Актеры: Джеффри Дин Морган, Зои Салдана, Крис Эванс, Идрис Эльба, Коламбус Шорт, Оскар Хаенада, Джейсон Патрик, Холт МакКэллани, Питер Макдисси, Питер Френсис Джеймс

    Сюжет фильма:
    Лузеры - сумасшедший экшн о предательстве и мести, рассказывающий о членах элитного отряда специального назначения, которых отправили в джунгли Боливии. Им поставили задачу найти и уничтожить, но на месте выясняется, что команду - Клэя, Дженсена, Рока, Пуча и Кугара - подставили, и они попали под перекрестный огонь двух противоборствующих лагерей. Смертельное противостояние было спровоцировано изнутри могущественным врагом, о котором известно лишь одно: его имя - Макс. Решив сыграть на том, что они числятся погибшими, члены отряда уходят в глубокое подполье и составляют опасный план по восстановлению своей репутации и сведению счетов с Максом. К ним присоединяется загадочная Аиша - красавица-агент, работающая по заданию, но вполне способная внести коррективы в заданный сверху план. В перерывах между разборками друг с другом им необходимо всегда оставаться на шаг впереди разъезжающего по всему миру Макса - беспощадного негодяя, намеревающегося втянуть мир в новую высокотехнологичную мировую войну только ради собственной выгоды. Если они смогут победить Макса и одновременно спасти мир, это будет настоящей удачей для команды, известной теперь как ЛУЗЕРЫ.



    Снималось в: США
    Киностудия: Warner Bros.
    Время просмотра: 1:36:55
    Перевод текста: Русский дублированный

    Файл
    Кодек для видео: H.264
    Качество фильма: HDRip-AVC 480p
    Информация о видео: 640x356@852x356 (2.40:1) at 23.976 fps, AVC at 1520 kbps
    Информация о звуке:
    1: АAС 2.0 148 kbps - Русский дублированный (R5)
    1: АAС 2.0 148 kbps - Английский
    Субтитры: Русские, Английские

    MI

    General
    Complete name : C:CREATE480outThe Losers.2010 (SD).m4v
    Format : MPEG-4
    Codec ID : M4V
    File size : 1.23 GiB
    Duration : 1h 36mn
    Overall bit rate mode : Variable
    Overall bit rate : 1 822 Kbps
    Movie name : Лузеры
    Performer : Sylvain White
    Recorded date : UTC 2010-04-22 08:00:00
    Encoded date : UTC 2014-03-16 11:58:33
    Tagged date : UTC 2014-03-16 12:21:59
    Copyright : Warner Bros., Dark Castle Entertainment, Weed Road Pictures
    Cover : Yes
    Comment : А вы были бы уже мертвы
    iTunEXTC : mpaa|PG-13|300|

    sonm : The Losers
    desc : Лузеры - сумасшедший экшн о предательстве и мести, рассказывающий о членах элитного отряда специального назначения, которых отправили в джунгли Боливии. Смертельное противостояние было спровоцировано изнутри могущественным врагом
    ldes : Лузеры - сумасшедший экшн о предательстве и мести, рассказывающий о членах элитного отряда специального назначения, которых отправили в джунгли Боливии. Им поставили задачу найти и уничтожить, но на месте выясняется, что команду - Клэя, Дженсена, Рока, Пуча и Кугара - подставили, и они попали под перекрестный огонь двух противоборствующих лагерей. Смертельное противостояние было спровоцировано изнутри могущественным врагом, о котором известно лишь одно: его имя - Макс. Решив сыграть на том, что они числятся погибшими, члены отряда уходят в глубокое подполье и составляют опасный план.
    hdvd : 0
    stik : 0
    cnID : 521039052
    xid : Apple:vendor_id:2010-196748

    Video
    ID : 1
    Format : AVC
    Format/Info : Advanced Video Codec
    Format profile : Baseline@L3.0
    Format settings, CABAC : No
    Format settings, ReFrames : 2 frames
    Codec ID : avc1
    Codec ID/Info : Advanced Video Coding
    Duration : 1h 36mn
    Bit rate : 1 522 Kbps
    Maximum bit rate : 6 488 Kbps
    Width : 640 pixels
    Height : 356 pixels
    Display aspect ratio : 2.40:1
    Frame rate mode : Constant
    Frame rate : 23.976 fps
    Color space : YUV
    Chroma subsampling : 4:2:0
    Bit depth : 8 bits
    Scan type : Progressive
    Bits/(Pixel*Frame) : 0.279
    Stream size : 1.03 GiB (84%)
    Title : The Losers _2010_
    Writing library : x264 core 140 r2377 40 929f149 tMod 8-bit@4:2:0 X86_64
    Encoding settings : cabac=0 / ref=2 / deblock=1:-1:-1 / analyse=0x1:0x131 / me=umh / subme=7 / psy=1 / fade_compensate=0.50 / psy_rd=0.95:0.15 / mixed_ref=1 / me_range=32 / chroma_me=1 / trellis=2 / 8x8dct=0 / cqm=0 / deadzone=21,11 / fast_pskip=0 / chroma_qp_offset=-3 / threads=12 / lookahead_threads=2 / sliced_threads=0 / nr=0 / decimate=0 / interlaced=0 / bluray_compat=0 / constrained_intra=0 / fgo=0 / bframes=0 / weightp=0 / keyint=250 / keyint_min=23 / scenecut=40 / intra_refresh=0 / rc_lookahead=96 / rc=crf / mbtree=1 / crf=21.0000 / qcomp=0.60 / qpmin=0:0:0 / qpmax=69:69:69 / qpstep=4 / vbv_maxrate=5000 / vbv_bufsize=5000 / crf_max=0.0 / nal_hrd=none / filler=0 / ip_ratio=1.30 / aq=4:0.90 / aq-sensitivity=10.00 / aq-factor=1.00:1.00:1.00 / aq2=0 / aq3=0
    Language : English
    Encoded date : UTC 2014-03-16 11:58:33
    Tagged date : UTC 2014-03-16 11:59:04
    Matrix coefficients : BT.709

    Audio #1
    ID : 2
    Format : AAC
    Format/Info : Advanced Audio Codec
    Format profile : LC
    Codec ID : 40
    Duration : 1h 36mn
    Bit rate mode : Variable
    Bit rate : 144 Kbps
    Maximum bit rate : 179 Kbps
    Channel(s) : 2 channels
    Channel positions : Front: L R
    Sampling rate : 48.0 KHz
    Compression mode : Lossy
    Stream size : 98.9 MiB (8%)
    Title : Dub R5
    Language : Russian
    Encoded date : UTC 2014-03-16 11:51:39
    Tagged date : UTC 2014-03-16 11:59:04

    Audio #2
    ID : 3
    Format : AAC
    Format/Info : Advanced Audio Codec
    Format profile : LC
    Codec ID : 40
    Duration : 1h 36mn
    Bit rate mode : Variable
    Bit rate : 148 Kbps
    Maximum bit rate : 185 Kbps
    Channel(s) : 2 channels
    Channel positions : Front: L R
    Sampling rate : 48.0 KHz
    Compression mode : Lossy
    Stream size : 103 MiB (8%)
    Title : Original
    Language : English
    Encoded date : UTC 2014-03-16 11:55:03
    Tagged date : UTC 2014-03-16 11:59:04

    Text #1
    ID : 4
    Format : Timed Text
    Muxing mode : sbtl
    Codec ID : tx3g
    Duration : 1h 31mn
    Bit rate mode : Variable
    Bit rate : 98 bps
    Stream size : 65.8 KiB (0%)
    Title : Subtitle Russian
    Language : Russian
    Encoded date : UTC 2014-03-16 11:59:04
    Tagged date : UTC 2014-03-16 11:59:04

    Text #2
    ID : 5
    Format : Timed Text
    Muxing mode : sbtl
    Codec ID : tx3g
    Duration : 1h 32mn
    Bit rate mode : Variable
    Bit rate : 60 bps
    Stream size : 40.6 KiB (0%)
    Title : Subtitle English
    Language : English
    Encoded date : UTC 2014-03-16 11:59:04
    Tagged date : UTC 2014-03-16 11:59:04

    Menu
    ID : 6
    Codec ID : text
    Duration : 1h 36mn
    Encoded date : UTC 2014-03-16 12:00:06
    Tagged date : UTC 2014-03-16 12:00:06
    Bit rate mode : VBR


    iTunes tags

    Sort Name: The Losers
    XID: Apple:vendor_id:2010-196748
    Content ID: 521039052
    Copyright: Warner Bros., Dark Castle Entertainment, Weed Road Pictures
    ScreenWriters: Питер Берг, Джеймс Вандербилт, Энди Диггл
    Producers: Керри Фостер, Акива Голдсман, Джоэл Силвер
    Director: Сильвен Уайт
    Cast: Джеффри Дин Морган, Зои Салдана, Крис Эванс, Идрис Эльба, Коламбус Шорт, Оскар Хаенада, Джейсон Патрик, Холт МакКэллани, Питер Макдисси, Питер Френсис Джеймс
    Rating: PG-13
    Long Deion: Лузеры - сумасшедший экшн о предательстве и мести, рассказывающий о членах элитного отряда специального назначения, которых отправили в джунгли Боливии. Им поставили задачу найти и уничтожить, но на месте выясняется, что команду - Клэя, Дженсена, Рока, Пуча и Кугара - подставили, и они попали под перекрестный огонь двух противоборствующих лагерей. Смертельное противостояние было спровоцировано изнутри могущественным врагом, о котором известно лишь одно: его имя - Макс. Решив сыграть на том, что они числятся погибшими, члены отряда уходят в глубокое подполье и составляют опасный план по восстановлению своей репутации и сведению счетов с Максом. К ним присоединяется загадочная Аиша - красавица-агент, работающая по заданию, но вполне способная внести коррективы в заданный сверху план.
    Deion: Лузеры - сумасшедший экшн о предательстве и мести, рассказывающий о членах элитного отряда специального назначения, которых отправили в джунгли Боливии. Смертельное противостояние было спровоцировано изнутри могущественным врагом
    Release Date: 2010-04-22T08:00:00Z
    Artist: Sylvain White
    Name: Лузеры
    Comments: А вы были бы уже мертвы
    x264

    x264 info: frame I:3398 Avg QP:20.86 size: 23313
    x264 info: frame P:136019 Avg QP:23.01 size: 7550
    x264 info: mb I I16..4: 33.9% 0.0% 66.1%
    x264 info: mb P I16..4: 1.7% 0.0% 3.0% P16..4: 53.7% 18.0% 8.9% 1.4% 0.5% skip:12.7%
    x264 info: coded y,uvDC,uvAC intra: 58.1% 76.3% 45.7% inter: 40.5% 47.4% 23.2%
    x264 info: i16 v,h,dc,p: 54% 16% 8% 22%
    x264 info: i4 v,h,dc,ddl,ddr,vr,hd,vl,hu: 36% 12% 14% 6% 7% 8% 6% 7% 5%
    x264 info: i8c dc,h,v,p: 51% 15% 26% 8%
    x264 info: ref P L0: 77.2% 22.8%
    x264 info: kb/s:1521.77




    Залил: gekka
    Размер скачиваемого торрента: 1.23 GB (1324301194 Bytes)

    Лузеры / The Losers (2010) HDRip-AVC | iPhone | D скачать через торрент бесплатно
    загрузка...
    Рейтинг →
     (голосов: 1, оценка 5/5, голосовать можно 1 раз )

    Другие торренты по теме:

  • Лузеры / Хор / Glee (2010) HDRip | P | ТНТ
  • Лузеры. Живой концерт / Glee: The 3D Concert Movie (2011) BDRip 1080p | 3D-Video | halfOU | L1
  • Лузеры / Хор / Glee (2013) WEB-DLRip | NewStudio скачать через торрент бесплатно
  • Лузеры / The Losers (2010) HDRip | A
  • Лузеры / The Losers (2010) BDRip-AVC от ExKinoRay | D


    • Комментарии (0):

      Информация

      Информация

        Посетители, находящиеся в группе Гости, не могут оставлять комментарии в данной новости.

        ↓ Меню



        ↓ Опрос

        А Вы добавили сайт в закладки?
        Да
        Не


        Top 10 за месяц (Фильмы)