.
Авторизация | Регистрация
Хочешь лучшие торренты? Добавь свой email!
Добавить
» » Тень / The Shadow (1994) BDRip-AVC | iPhone | P скачать через торрент бесплатно




    Тень / The Shadow (1994) BDRip-AVC | iPhone | P скачать через торрент бесплатно

    Опубликовал: Админ | Дата: 27-02-2015, 11:10 | Просмотров: 246



    Тень / The Shadow (1994) BDRip-AVC | iPhone | P

    Русское название: Тень
    Русское название в мировом прокате: The Shadow
    Создали в: 1994
    Категория жанра: фэнтези, боевик, триллер, криминал, детектив, приключения, комикс
    Главный режиссер: Рассел Малкэй
    Актеры: Алек Болдуин, Джон Лоун, Пенелопа Энн Миллер, Питер Бойл, Иэн МакКеллен, Тим Карри, Джонатан Уинтерс, Саб Симоно, Андре Грегори, Брэйди Цурутани

    Сюжет фильма:
    После пребывания в буддийском монастыре, бывший беспощадный правитель огромной наркоимперии, а ныне добропорядочный гражданин, скрыв лицо под маской, борется со злом в самом страшном городе мира - Нью-Йорке. Но вот у него появляется соперник не менее могущественный чем он сам - потомок Чингисхана, стремящийся подчинить себе весь мир...



    Снималось в: США
    Киностудия: Universal Pictures
    Время просмотра: 01:47:25
    Перевод текста: Русский профессиональный многоголосый закадровый

    Файл
    Кодек для видео: H.264
    Качество фильма: BDRip-AVC 480p
    Информация о видео: 640x462@852x462 (1.85:1) at 23.976 fps, AVC at 1700 kbps
    Информация о звуке:
    1: АAС 2.0 150 kbps - Русский профессиональный многоголосый закадровый (Amalgama)
    2: АAС 2.0 150 kbps - Английский
    3: АС3 5.1 384 kbps - Английский
    Субтитры: Русские, Английские

    MI

    General
    Complete name : C:CREATE480outThe.Shadow.1994 (SD).m4v
    Format : MPEG-4
    Codec ID : M4V
    File size : 1.81 GiB
    Duration : 1h 47mn
    Overall bit rate mode : Variable
    Overall bit rate : 2 404 Kbps
    Movie name : Тень
    Performer : Russell Mulcahy
    Recorded date : UTC 1994-07-01 08:00:00
    Encoded date : UTC 2014-03-16 16:53:30
    Tagged date : UTC 2014-03-16 17:40:41
    Copyright : Universal Pictures
    Cover : Yes
    Comment : The Shadow Knows!
    iTunEXTC : mpaa|PG-13|300|

    sonm : Shadow
    desc : После пребывания в буддийском монастыре, бывший беспощадный правитель огромной наркоимперии, а ныне добропорядочный гражданин, скрыв лицо под маской, борется со злом в самом страшном городе мира - Нью-Йорке.
    ldes : После пребывания в буддийском монастыре, бывший беспощадный правитель огромной наркоимперии, а ныне добропорядочный гражданин, скрыв лицо под маской, борется со злом в самом страшном городе мира - Нью-Йорке. Но вот у него появляется соперник не менее могущественный чем он сам - потомок Чингисхана, стремящийся подчинить себе весь мир...
    hdvd : 0
    stik : 0
    cnID : 318139856
    xid : Apple:vendor_id:1994-3509

    Video
    ID : 1
    Format : AVC
    Format/Info : Advanced Video Codec
    Format profile : Baseline@L3.0
    Format settings, CABAC : No
    Format settings, ReFrames : 2 frames
    Codec ID : avc1
    Codec ID/Info : Advanced Video Coding
    Duration : 1h 47mn
    Bit rate : 1 711 Kbps
    Maximum bit rate : 7 241 Kbps
    Width : 640 pixels
    Height : 462 pixels
    Display aspect ratio : 1.85:1
    Frame rate mode : Constant
    Frame rate : 23.976 fps
    Color space : YUV
    Chroma subsampling : 4:2:0
    Bit depth : 8 bits
    Scan type : Progressive
    Bits/(Pixel*Frame) : 0.241
    Stream size : 1.28 GiB (71%)
    Title : The Shadow _1994_
    Writing library : x264 core 140 r2377 40 929f149 tMod 8-bit@4:2:0 X86_64
    Encoding settings : cabac=0 / ref=2 / deblock=1:-1:-1 / analyse=0x1:0x131 / me=umh / subme=7 / psy=1 / fade_compensate=0.50 / psy_rd=0.95:0.15 / mixed_ref=1 / me_range=32 / chroma_me=1 / trellis=2 / 8x8dct=0 / cqm=0 / deadzone=21,11 / fast_pskip=0 / chroma_qp_offset=-3 / threads=12 / lookahead_threads=2 / sliced_threads=0 / nr=0 / decimate=0 / interlaced=0 / bluray_compat=0 / constrained_intra=0 / fgo=0 / bframes=0 / weightp=0 / keyint=250 / keyint_min=23 / scenecut=40 / intra_refresh=0 / rc_lookahead=96 / rc=crf / mbtree=1 / crf=21.0000 / qcomp=0.60 / qpmin=0:0:0 / qpmax=69:69:69 / qpstep=4 / vbv_maxrate=5000 / vbv_bufsize=5000 / crf_max=0.0 / nal_hrd=none / filler=0 / ip_ratio=1.30 / aq=4:0.90 / aq-sensitivity=10.00 / aq-factor=1.00:1.00:1.00 / aq2=0 / aq3=0
    Language : English
    Encoded date : UTC 2014-03-16 16:53:30
    Tagged date : UTC 2014-03-16 16:54:06
    Matrix coefficients : BT.709

    Audio #1
    ID : 2
    Format : AAC
    Format/Info : Advanced Audio Codec
    Format profile : LC
    Codec ID : 40
    Duration : 1h 47mn
    Bit rate mode : Variable
    Bit rate : 152 Kbps
    Maximum bit rate : 174 Kbps
    Channel(s) : 2 channels
    Channel positions : Front: L R
    Sampling rate : 48.0 KHz
    Compression mode : Lossy
    Stream size : 117 MiB (6%)
    Title : MVO Amalgama
    Language : Russian
    Encoded date : UTC 2014-03-16 16:46:43
    Tagged date : UTC 2014-03-16 16:54:06

    Audio #2
    ID : 3
    Format : AAC
    Format/Info : Advanced Audio Codec
    Format profile : LC
    Codec ID : 40
    Duration : 1h 47mn
    Bit rate mode : Variable
    Bit rate : 149 Kbps
    Maximum bit rate : 174 Kbps
    Channel(s) : 2 channels
    Channel positions : Front: L R
    Sampling rate : 48.0 KHz
    Compression mode : Lossy
    Stream size : 115 MiB (6%)
    Title : AAC Original
    Language : English
    Encoded date : UTC 2014-03-16 16:51:33
    Tagged date : UTC 2014-03-16 16:54:06

    Audio #3
    ID : 4
    Format : AC-3
    Format/Info : Audio Coding 3
    Mode extension : CM (complete main)
    Format settings, Endianness : Big
    Codec ID : ac-3
    Duration : 1h 47mn
    Bit rate mode : Constant
    Bit rate : 384 Kbps
    Channel(s) : 6 channels
    Channel positions : Front: L C R, Side: L R, LFE
    Sampling rate : 48.0 KHz
    Bit depth : 16 bits
    Compression mode : Lossy
    Stream size : 295 MiB (16%)
    Title : AC3 Original
    Language : English
    Encoded date : UTC 2014-03-16 16:53:56
    Tagged date : UTC 2014-03-16 16:54:06

    Text #1
    ID : 5
    Format : Timed Text
    Muxing mode : sbtl
    Codec ID : tx3g
    Duration : 1h 47mn
    Bit rate mode : Variable
    Bit rate : 70 bps
    Stream size : 55.1 KiB (0%)
    Title : Subtitle Russian
    Language : Russian
    Encoded date : UTC 2014-03-16 16:54:06
    Tagged date : UTC 2014-03-16 16:54:06

    Text #2
    ID : 6
    Format : Timed Text
    Muxing mode : sbtl
    Codec ID : tx3g
    Duration : 1h 47mn
    Bit rate mode : Variable
    Bit rate : 46 bps
    Stream size : 36.4 KiB (0%)
    Title : Subtitle English
    Language : English
    Encoded date : UTC 2014-03-16 16:54:06
    Tagged date : UTC 2014-03-16 16:54:06

    Menu
    ID : 7
    Codec ID : text
    Duration : 1h 47mn
    Encoded date : UTC 2014-03-16 16:54:37
    Tagged date : UTC 2014-03-16 16:54:37
    Bit rate mode : VBR
    iTunes tags

    Sort Name: Shadow
    XID: Apple:vendor_id:1994-3509
    Content ID: 318139856
    Copyright: Universal Pictures
    ScreenWriters: Уолтер Б. Гибсон, Дэвид Кепп
    Producers: Уилли Бар, Мартин Брегман, Майкл Брегман
    Director: Рассел Малкэй
    Cast: Алек Болдуин, Джон Лоун, Пенелопа Энн Миллер, Питер Бойл, Иэн МакКеллен, Тим Карри, Джонатан Уинтерс, Саб Симоно, Андре Грегори, Брэйди Цурутани
    Rating: PG-13
    Long Deion: После пребывания в буддийском монастыре, бывший беспощадный правитель огромной наркоимперии, а ныне добропорядочный гражданин, скрыв лицо под маской, борется со злом в самом страшном городе мира - Нью-Йорке. Но вот у него появляется соперник не менее могущественный чем он сам - потомок Чингисхана, стремящийся подчинить себе весь мир...
    Deion: После пребывания в буддийском монастыре, бывший беспощадный правитель огромной наркоимперии, а ныне добропорядочный гражданин, скрыв лицо под маской, борется со злом в самом страшном городе мира - Нью-Йорке. Но вот у него появляется соперник не менее
    Release Date: 1994-07-01T08:00:00Z
    Artist: Russell Mulcahy
    Name: Тень
    Comments: The Shadow Knows!
    x264

    x264 info: frame I:3184 Avg QP:21.40 size: 27408
    x264 info: frame P:151345 Avg QP:22.77 size: 8530
    x264 info: mb I I16..4: 33.4% 0.0% 66.6%
    x264 info: mb P I16..4: 0.9% 0.0% 1.6% P16..4: 57.4% 17.0% 8.7% 1.1% 0.4% skip:12.9%
    x264 info: coded y,uvDC,uvAC intra: 69.2% 65.0% 25.7% inter: 43.2% 29.5% 6.1%
    x264 info: i16 v,h,dc,p: 52% 14% 11% 24%
    x264 info: i4 v,h,dc,ddl,ddr,vr,hd,vl,hu: 24% 12% 19% 8% 9% 10% 6% 7% 5%
    x264 info: i8c dc,h,v,p: 59% 14% 22% 5%
    x264 info: ref P L0: 77.2% 22.8%
    x264 info: kb/s:1710.69




    Залил: gekka
    Размер скачиваемого торрента: 1.81 GB (1938366775 Bytes)

    Тень / The Shadow (1994) BDRip-AVC | iPhone | P скачать через торрент бесплатно
    загрузка...
    Рейтинг →
     (голосов: 1, оценка 4/5, голосовать можно 1 раз )

    Другие торренты по теме:

  • Власик. Тень Сталина (Власик. Тень Одиночества) (2017) HDTVRip 720p от GeneralFilm
  • Власик. Тень Сталина (Власик. Тень Одиночества) (2017) HDTV 1080i от GeneralFilm
  • Власик. Тень Сталина (Власик. Тень Одиночества) (2017) WEB-DLRip от GeneralFilm
  • Власик. Тень Сталина / Власик. Тень Одиночества (2017) HDTVRip от GeneralFilm
  • Власик. Тень Сталина / Власик. Тень Одиночества (2017) WEB-DLRip-AVC от Files-x
  • Власик. Тень Сталина / Власик. Тень Одиночества (2017) WEB-DLRip от GeneralFilm
  • S.T.A.L.K.E.R.: Тень Чернобыля - Возвращение Шрама (2012) PC | RePack от SeregA-Lus
  • Тень / The Shadow (1994) HDRip | P


    • Комментарии (0):

      Информация

      Информация

        Посетители, находящиеся в группе Гости, не могут оставлять комментарии в данной новости.

        ↓ Меню



        ↓ Опрос

        А Вы добавили сайт в закладки?
        Да
        Не


        Top 10 за месяц (Фильмы)