.
Авторизация | Регистрация
Хочешь лучшие торренты? Добавь свой email!
Добавить
» » Мужская работа (2001-2002) 2хDVD-9 скачать торрент бесплатно




    Мужская работа (2001-2002) 2хDVD-9 скачать торрент бесплатно

    Опубликовал: Админ | Дата: 27-02-2015, 11:10 | Просмотров: 240



    Детально о кино
    Русское название в мировом прокате: Мужская работа 1-2
    Создали в: 2001-2002
    Категория жанра: Боевик, военный
    Главный режиссер: Тигран Кеосаян
    Актеры: Фёдор Бондарчук, Алёна Хмельницкая, Александр Мохов, Сергей Векслер, Валерий Баринов, Михаил Жигалов, Владимир Стержаков, Михаил Жигалов, Николай Чиндяйкин, Владимир Еремин, Сергей Маховиков, Андрей Лебедев, Константин Юшкевич, Владимир Болотнов, Анна Данькова, Сахат Дурсунов, Алиса Богарт, Кирилл Бурдихин

    Сюжет фильма: История трех друзей — Пасечника, Лешего и Гюрзы — крутых парней, сделавших войну своей профессией. Бывшие афганцы стали наемниками, зарабатывающими большие деньги в горячих точках планеты. Спустя десять лет судьбе было угодно свести их вновь на одном поле боя в Чечне… по разные стороны баррикад.


    Снималось в: Россия
    Киностудия: Студия 2В
    Время просмотра: 18 х ~ 00:45:00
    Язык: Русский



    Файл
    Кодек для видео: MPEG-2
    Качество фильма: DVD-9
    Информация о видео: PAL 4:3 (720x576) VBR
    Информация о звуке: Русский (Dolby AC3, 2 ch)


    Меню


    DVDInfo
    Title: Локальный диск
    Size: 7.45 Gb ( 7 815 932 KBytes ) - DVD-9
    Enabled regions: 1, 2, 3, 4, 5, 6, 7, 8

    VTS_01 :
    Play Length: 00:44:19 00:44:48 00:45:17 00:44:43 00:42:48 00:42:34 00:44:33 00:43:56
    Video: PAL 4:3 (720x576) VBR
    Audio:
    English (Dolby AC3, 2 ch)

    Menu Video:
    PAL 4:3 (720x576) VBR
    Menu Audio:
    Not specified (Dolby AC3, 2 ch)
    Menu Subtitles:
    Not specified
    Menu English Language Unit :
    Root Menu




    MediaInfo
    Общее
    Полное имя : D:1АААМУЖСКАЯ РАБОТА 1-2Диск 1VIDEO_TSVTS_01_1.VOB
    Формат : MPEG-PS
    Размер файла : 1024 Мбайт
    Продолжительность : 4 м. 7 с.
    Режим общего битрейта : Переменный
    Общий поток : 34,7 Мбит/сек

    Видео
    Идентификатор : 224 (0xE0)
    Формат : MPEG Video
    Версия формата : Version 2
    Профиль формата : Main@Main
    Параметр BVOP формата : Да
    Параметр матрицы формата : Выборочная
    Параметр GOP формата : M=3, N=15
    Продолжительность : 4 м. 7 с.
    Вид битрейта : Переменный
    Битрейт : 33,8 Мбит/сек
    Максимальный битрейт : 9300 Кбит/сек
    Ширина : 720 пикселей
    Высота : 576 пикселей
    Соотношение сторон : 4:3
    Частота кадров : 25,000 кадров/сек
    Стандарт вещания : PAL
    Цветовое пространство : YUV
    Субдискретизация насыщенности : 4:2:0
    Битовая глубина : 8 бит
    Тип развёртки : Чересстрочная
    Порядок развёртки : Нижнее поле первое
    Метод сжатия : С потерями
    Бит/(Пиксели*Кадры) : 3.260
    TimeCode_FirstFrame : 00:00:01:20
    TimeCode_Source : Group of pictures t_head
    Размер потока : 998 Мбайт (97%)

    Аудио
    Идентификатор : 189 (0xBD)-128 (0x80)
    Формат : AC-3
    Формат/Информация : Audio Coding 3
    Расширение режима : CM (complete main)
    Параметр Endianness формата : Big
    Режим смешивания : DVD-Video
    Продолжительность : 4 м. 7 с.
    Вид битрейта : Постоянный
    Битрейт : 192 Кбит/сек
    Каналы : 2 канала
    Расположение каналов : Front: L R
    Частота : 48,0 КГц
    Битовая глубина : 16 бит
    Метод сжатия : С потерями
    Задержка видео : -80 мс.
    Размер потока : 5,67 Мбайт (1%)

    Меню




    Скриншоты для ознакомления

    Залил: YArl
    Размер скачиваемого торрента: 14.83 GB (15924037632 Bytes)

    Мужская работа (2001-2002) 2хDVD-9 торрент скачать бесплатно
    загрузка...
    Рейтинг →
     (голосов: 1, оценка 4/5, голосовать можно 1 раз )

    Другие торренты по теме:

  • Очная ставка. Мужская работа (2013) SATRip
  • Мужская работа / Lhomme de la situation (2011) SatRip | P
  • Мужская работа (2015) WEB-DLRip от Generalfilm


    • Комментарии (0):

      Информация

      Информация

        Посетители, находящиеся в группе Гости, не могут оставлять комментарии в данной новости.

        ↓ Меню



        ↓ Опрос

        А Вы добавили сайт в закладки?
        Да
        Не


        Top 10 за месяц (Фильмы)