.
Авторизация | Регистрация
Хочешь лучшие торренты? Добавь свой email!
Добавить
» » Придурок / The Jerk (1979) BDRip 1080p by msltel | P, A скачать торрент бесплатно




    Придурок / The Jerk (1979) BDRip 1080p by msltel | P, A скачать торрент бесплатно

    Опубликовал: Админ | Дата: 27-02-2015, 11:10 | Просмотров: 420



    Русское название: Придурок
    Русское название в мировом прокате: The Jerk
    Создали в: 1979
    Категория жанра: Комедия
    Снималось в: США, Aspen Film Society
    Главный режиссер: Карл Райнер
    Актеры: Стив Мартин, Бернадетт Питерс, Кэтлин Адамс, Мэйбл Кинг, Ричард Уорд, Дик Энтони Уильямс, Билл Мэйси, М. Эммет Уолш, Дик О’Нил, Морис Эванс

    Сюжет фильма: Узнав что он приёмный сын, Нэйвин бросает своих названых чернокожих родителей и отправляется за смыслом жизни в Сент-Луис. Поначалу большой город не принимает новичка, и Нэйвину упорно приходится доказывать, что он чего-то стоит. Долго мучиться не приходится, как говорится — дуракам везёт, и на провинциального паренька нежданно-негаданно, оптом, сваливаются и богатство, и известность, и слава. Только вот что делать со всем этим внезапным счастьем, придётся поломать голову…

    Качество фильма: BDRip 1080p
    Размер скачиваемого торрента: 12.09 ГБ
    Время просмотра: 01:33:54

    Информация о видео: MPEG-4 AVC, 13.2 Mбит/с, 1920x1040
    Информация о звуке 1: русский, 48 kHz, DTS, 6 ch, 755 kbps avg, Профессиональный многоголосый, Lizard
    Информация о звуке 2: русский, 48 kHz, AC3, 2 ch, 256 kbps avg, Профессиональный многоголосый, CTC
    Информация о звуке 3: русский, 48 kHz, DTS, 6 ch, 1509 kbps avg, Авторский, Алексей Михалёв

    Внешние файлы
    Информация о звуке: русский, 48 kHz, AC3, 6 ch, 448 kbps avg, Профессиональный многоголосый, Lizard
    Информация о звуке: русский, 48 kHz, AC3, 6 ch, 448 kbps avg, Авторский, Алексей Михалёв
    Информация о звуке: английский, 48 kHz, DTS, 6 ch, 1509 kbps avg, Оригинал
    Субтитры: русские
    Субтитры: английские (для слабослышащих)

    Исходник: ChuckNorriss (HDtracker)

    Сравнение с исходником



    MediaInfo Лог х264
    Общее
    Полное имя : D:VideoPridurok.1979.x264.BDRip.1080pPridurok.1979.AVO.rus.А.Михалёв.ac3
    Формат : AC-3
    Формат/Информация : Audio Coding 3
    Размер файла : 301 Мбайт
    Продолжительность : 1 ч. 33 м.
    Режим общего битрейта : Постоянный
    Общий поток : 448 Кбит/сек

    Аудио
    Формат : AC-3
    Формат/Информация : Audio Coding 3
    Расширение режима : CM (complete main)
    Параметр Endianness формата : Big
    Продолжительность : 1 ч. 33 м.
    Вид битрейта : Постоянный
    Битрейт : 448 Кбит/сек
    Каналы : 6 каналов
    Расположение каналов : Front: L C R, Side: L R, LFE
    Частота : 48,0 КГц
    Битовая глубина : 16 бит
    Метод сжатия : С потерями
    Размер потока : 301 Мбайт (100%)

    Общее
    Полное имя : D:VideoPridurok.1979.x264.BDRip.1080pPridurok.1979.eng.SDH.srt
    Формат : SubRip
    Размер файла : 110 Кбайт

    Текст
    Формат : SubRip
    Метод сжатия : Без потерь

    Общее
    Полное имя : D:VideoPridurok.1979.x264.BDRip.1080pPridurok.1979.MVO.rus.Lizard.ac3
    Формат : AC-3
    Формат/Информация : Audio Coding 3
    Размер файла : 301 Мбайт
    Продолжительность : 1 ч. 33 м.
    Режим общего битрейта : Постоянный
    Общий поток : 448 Кбит/сек

    Аудио
    Формат : AC-3
    Формат/Информация : Audio Coding 3
    Расширение режима : CM (complete main)
    Параметр Endianness формата : Big
    Продолжительность : 1 ч. 33 м.
    Вид битрейта : Постоянный
    Битрейт : 448 Кбит/сек
    Каналы : 6 каналов
    Расположение каналов : Front: L C R, Side: L R, LFE
    Частота : 48,0 КГц
    Битовая глубина : 16 бит
    Метод сжатия : С потерями
    Размер потока : 301 Мбайт (100%)

    Общее
    Полное имя : D:VideoPridurok.1979.x264.BDRip.1080pPridurok.1979.Original.eng.dts
    Формат : DTS
    Формат/Информация : Digital Theater Systems
    Размер файла : 1014 Мбайт
    Продолжительность : 1 ч. 33 м.
    Режим общего битрейта : Постоянный
    Общий поток : 1509 Кбит/сек

    Аудио
    Формат : DTS
    Формат/Информация : Digital Theater Systems
    Режим : 16
    Параметр Endianness формата : Big
    Продолжительность : 1 ч. 33 м.
    Вид битрейта : Постоянный
    Битрейт : 1509 Кбит/сек
    Каналы : 6 каналов
    Расположение каналов : Front: L C R, Side: L R, LFE
    Частота : 48,0 КГц
    Битовая глубина : 24 бит
    Метод сжатия : С потерями
    Размер потока : 1014 Мбайт

    Общее
    Полное имя : D:VideoPridurok.1979.x264.BDRip.1080pPridurok.1979.rus.srt
    Размер файла : 78,1 Кбайт

    Общее
    Уникальный идентификатор : 199300667791606545959307279761151222487 (0x95EFE99348A89378993797C04A51E2D7)
    Полное имя : D:VideoPridurok.1979.x264.BDRip.1080pPridurok.1979.x264.BDRip.1080p.mkv
    Формат : Matroska
    Версия формата : Version 4 / Version 2
    Размер файла : 10,5 Гбайт
    Продолжительность : 1 ч. 33 м.
    Общий поток : 16,0 Мбит/сек
    Дата кодирования : UTC 2014-03-15 02:58:37
    Программа кодирования : mkvmerge v6.7.0 (;Back to the Ground;) 64bit built on Jan 8 2014 15:10:52
    Библиотека кодирования : libebml v1.3.0 libmatroska v1.4.1

    Видео
    Идентификатор : 1
    Формат : AVC
    Формат/Информация : Advanced Video Codec
    Профиль формата : High@L4.1
    Параметр CABAC формата : Да
    Параметр ReFrames формата : 4 кадра
    Идентификатор кодека : V_MPEG4/ISO/AVC
    Продолжительность : 1 ч. 33 м.
    Битрейт : 13,2 Мбит/сек
    Ширина : 1920 пикселей
    Высота : 1040 пикселей
    Соотношение сторон : 1,85:1
    Режим частоты кадров : Постоянный
    Частота кадров : 23,976 кадра/сек
    Цветовое пространство : YUV
    Субдискретизация насыщенности : 4:2:0
    Битовая глубина : 8 бит
    Тип развёртки : Прогрессивная
    Бит/(Пиксели*Кадры) : 0.276
    Размер потока : 8,65 Гбайт (82%)
    Заголовок : BDRip-- STarankov
    Библиотека кодирования : x264 core 138 r2358 9e941d1
    Залил: msltel
    Размер скачиваемого торрента: 12.09 GB (12985612244 Bytes)


    Придурок / The Jerk (1979) BDRip 1080p by msltel | P, A торрент скачать бесплатно
    загрузка...
    Рейтинг →
     (голосов: 1, оценка 3/5, голосовать можно 1 раз )

    Другие торренты по теме:

  • Придурок / Балда / The Jerk (1979) HD-DVDRip от HQCLUB
  • Главный придурок / Глава правления / Chairman of the Board (1998) DVDRip | P
  • Придурок / The Jerk (1979) BDRip 720p от MediaClub | P, A скачать через торрент бесплатно
  • Придурок / The Jerk (1979) BDRip by msltel | P, A
  • Придурок / The Jerk (1979) BDRip 720p by msltel | P, A
  • Придурок (Балда) / The Jerk / 1979 / ПМ / HDDVDRip


    • Комментарии (0):

      Информация

      Информация

        Посетители, находящиеся в группе Гости, не могут оставлять комментарии в данной новости.

        ↓ Меню



        ↓ Опрос

        А Вы добавили сайт в закладки?
        Да
        Не


        Top 10 за месяц (Фильмы)