.
Авторизация | Регистрация
Хочешь лучшие торренты? Добавь свой email!
Добавить
» » Близкие враги / Enemies Closer (2013) BDRemux 1080p от MediaClub | P2, A скачать торрент бесплатно




    Близкие враги / Enemies Closer (2013) BDRemux 1080p от MediaClub | P2, A скачать торрент бесплатно

    Опубликовал: Админ | Дата: 27-02-2015, 11:10 | Просмотров: 184



    Детально о кино
    Русское название: Близкие враги
    Русское название в мировом прокате: Enemies Closer
    Создали в: 2013
    Категория жанра: Триллер
    Главный режиссер: Питер Хайамс
    Актеры: Жан-Клод Ван Дамм, Орландо Джонс, Том Эверетт Скотт, Линзи Коккер, Кристофер Ван Варенберг, Захари Бахаров, Атанас Сребрев, Мэтт Медрано, Йонас Токингтон, Христо Митцков

    Сюжет: Двум заклятым врагам, столкнувшимся в лесу на американо-канадской границе, приходится объединиться в борьбе против наркокурьеров, желающих любой ценой вернуть свой потерянный груз.




    Снималось в: Канада, США
    Киностудия: AfterDark Films, IM Global
    Время просмотра: 01:24:50
    Перевод текста: Профессиональный двухголосый, авторский одноголосый

    Файл
    Качество фильма: Blu-ray Remux 1080p
    Информация о видео: MPEG-4 AVC, 21985 Кбит/с, 1920x1080, 23.976 кадр/с
    Информация о звуке #1: Русский (AC3, 6 ch, 448 Кбит/с) / Профессиональный двухголосый (Пиратская студия)
    Информация о звуке #2: Русский (DTS, 6 ch, 1509 Кбит/с) / Авторский одноголосый (Есарев)
    Информация о звуке #3: Английский (DTS-HD MA, 6 ch, 4084 Кбит/с)
    Субтитры: Русские, английские

    Скриншоты для ознакомления


    О релизе
    За исходный блюр спасибо: CHDBits
    MI
    Общее
    Уникальный идентификатор : 210955672628211070226638573235148278527 (0x9EB495ADEF9B9B4EB5989748D51DCAFF)
    Полное имя : D:Mои раздачиBlizkie.vragi.2013.BDRemux.1080p-MediaClub.mkv
    Формат : Matroska
    Версия формата : Version 4 / Version 2
    Размер файла : 16,5 Гбайт
    Продолжительность : 1 ч. 24 м.
    Режим общего битрейта : Переменный
    Общий поток : 27,8 Мбит/сек
    Название фильма : -=MediaClub-kaspr=-
    Дата кодирования : UTC 2014-03-15 08:41:06
    Программа кодирования : mkvmerge v6.8.0 (;Theme for Great Cities;) 64bit built on Mar 2 2014 21:34:26
    Библиотека кодирования : libebml v1.3.0 libmatroska v1.4.1

    Видео
    Идентификатор : 1
    Формат : AVC
    Формат/Информация : Advanced Video Codec
    Профиль формата : High@L4.1
    Параметр CABAC формата : Да
    Параметр ReFrames формата : 4 кадра
    Идентификатор кодека : V_MPEG4/ISO/AVC
    Продолжительность : 1 ч. 24 м.
    Вид битрейта : Переменный
    Максимальный битрейт : 38,0 Мбит/сек
    Ширина : 1920 пикселей
    Высота : 1080 пикселей
    Соотношение сторон : 16:9
    Режим частоты кадров : Постоянный
    Частота кадров : 23,976 кадра/сек
    Цветовое пространство : YUV
    Субдискретизация насыщенности : 4:2:0
    Битовая глубина : 8 бит
    Тип развёртки : Прогрессивная
    Заголовок : -=MediaClub-kaspr=-
    Default : Да
    Forced : Да

    Аудио #1
    Идентификатор : 2
    Формат : AC-3
    Формат/Информация : Audio Coding 3
    Расширение режима : CM (complete main)
    Параметр Endianness формата : Big
    Идентификатор кодека : A_AC3
    Продолжительность : 1 ч. 24 м.
    Вид битрейта : Постоянный
    Битрейт : 448 Кбит/сек
    Каналы : 6 каналов
    Расположение каналов : Front: L C R, Side: L R, LFE
    Частота : 48,0 КГц
    Битовая глубина : 16 бит
    Метод сжатия : С потерями
    Размер потока : 272 Мбайт (2%)
    Заголовок : DVO
    Язык : Russian
    Default : Да
    Forced : Да

    Аудио #2
    Идентификатор : 3
    Формат : DTS
    Формат/Информация : Digital Theater Systems
    Режим : 16
    Параметр Endianness формата : Big
    Идентификатор кодека : A_DTS
    Продолжительность : 1 ч. 24 м.
    Вид битрейта : Постоянный
    Битрейт : 1509 Кбит/сек
    Каналы : 6 каналов
    Расположение каналов : Front: L C R, Side: L R, LFE
    Частота : 48,0 КГц
    Битовая глубина : 16 бит
    Метод сжатия : С потерями
    Размер потока : 916 Мбайт (5%)
    Заголовок : Есарев
    Язык : Russian
    Default : Нет
    Forced : Нет

    Аудио #3
    Идентификатор : 4
    Формат : DTS
    Формат/Информация : Digital Theater Systems
    Профиль формата : MA / Core
    Режим : 16
    Параметр Endianness формата : Big
    Идентификатор кодека : A_DTS
    Продолжительность : 1 ч. 24 м.
    Вид битрейта : Переменный
    Битрейт : Неизвестно / 1509 Кбит/сек
    Каналы : 6 каналов
    Расположение каналов : Front: L C R, Side: L R, LFE
    Частота : 48,0 КГц
    Битовая глубина : 24 бит
    Метод сжатия : Без потерь / Lossy
    Язык : English
    Default : Нет
    Forced : Нет

    Текст #1
    Идентификатор : 5
    Формат : UTF-8
    Идентификатор кодека : S_TEXT/UTF8
    Идентификатор кодека/Информация : UTF-8 Plain Text
    Язык : Russian
    Default : Нет
    Forced : Нет

    Текст #2
    Идентификатор : 6
    Формат : UTF-8
    Идентификатор кодека : S_TEXT/UTF8
    Идентификатор кодека/Информация : UTF-8 Plain Text
    Язык : English
    Default : Нет
    Forced : Нет

    Меню
    00:00:00.000 : en:Chapter 01
    00:05:21.988 : en:Chapter 02
    00:11:50.501 : en:Chapter 03
    00:17:55.074 : en:Chapter 04
    00:25:25.523 : en:Chapter 05
    00:33:47.233 : en:Chapter 06
    00:41:11.510 : en:Chapter 07
    00:49:59.997 : en:Chapter 08
    00:55:07.137 : en:Chapter 09
    01:02:16.816 : en:Chapter 10
    01:09:24.910 : en:Chapter 11
    01:19:20.464 : en:Chapter 12


    Релиз: |
    Залил: kaspr
    Размер скачиваемого торрента: 16.50 GB (17716681679 Bytes)

    Близкие враги / Enemies Closer (2013) BDRemux 1080p от MediaClub | P2, A торрент скачать бесплатно
    загрузка...
    Рейтинг →
     (голосов: 1, оценка 5/5, голосовать можно 1 раз )

    Другие торренты по теме:

  • Близкие враги / Lennemi intime / Intimate Enemies (2007) HDRip | P
  • Близкие враги / Enemies Closer (2013) DVDRip-AVC | L1
  • Близкие враги / Enemies Closer (2013) DVDRip | L1
  • Близкие враги / Enemies Closer (2013) BDRip 720p | L1 скачать через торрент бесплатно
  • Близкие враги / Enemies Closer (2013) HDRip | L1 скачать через торрент бесплатно
  • Близкие враги / Enemies Closer (2013) HDRip | Д. Есарев скачать через торрент бесплатно
  • Близкие враги / Enemies Closer (2013) BDRip 720p от CINEMANIA | A, L1
  • Близкие враги / Enemies Closer (2013) BDRip 1080p от CINEMANIA | A, L1


    • Комментарии (0):

      Информация

      Информация

        Посетители, находящиеся в группе Гости, не могут оставлять комментарии в данной новости.

        ↓ Меню



        ↓ Опрос

        А Вы добавили сайт в закладки?
        Да
        Не


        Top 10 за месяц (Фильмы)