.
Авторизация | Регистрация
Хочешь лучшие торренты? Добавь свой email!
Добавить
» » Отец-молодец / Delivery Man (2013) BDRip 1080p | Лицензия скачать торрент бесплатно




    Отец-молодец / Delivery Man (2013) BDRip 1080p | Лицензия скачать торрент бесплатно

    Опубликовал: Админ | Дата: 27-02-2015, 11:10 | Просмотров: 480



    Детально о кино
    Русское название: Отец-молодец
    Русское название в мировом прокате: Delivery Man
    Создали в: 2013
    Категория жанра: комедия, драма
    Снималось в: США / Dickhouse Productions, MTV Films
    Главный режиссер: Кен Скотт
    Актеры: Винс Вон, Крис Прэтт, Коби Смолдерс, Анджей Блюменфельд, Саймон Делани, Бобби Мойнахан, Дэйв Паттен, Адам Чанлер-Берат, Бритт Робертсон, Джек Рейнор

    Сюжет фильма: Жизнь бруклинского работяги Дэвида Возняка не похожа на праздник: у него кризис среднего возраста, он должен денег подпольному ростовщику, девушка собирается его бросить, а родной отец грозит увольнением с работы. А в довершение всех бед к нему приходит адвокат с известием о том, что в результате ошибки, которую двадцать лет назад совершили в банке спермы, который Дэвид посещал в студенческие годы, он является биологическим отцом 533 детей. И 142 из них обратились в суд с требованием раскрыть имя своего родителя. Вначале Дэвид не знает, что делать в такой ситуации, но постепенно любопытство перевешивает, и он решает — инкогнито — узнать поближе хотя бы некоторых из своих нежданных потомков…




    Файл
    Качество фильма: BDRip (1080p)
    Информация о видео: MPEG-4 AVC, 10100 Кбит/с, 1920х798
    Информация о звуке: Русский (AC3, 6 ch, 640 Кбит/с), английский (DTS, 6 ch, 1510 Кбит/с), (AC3, 2 ch, 320 Кбит/с)
    Размер скачиваемого торрента: 9.2 ГБ
    Время просмотра: 01:44:47
    Перевод текста: Дублированный лицензия
    Субтитры: Русские, английские

    MI
    Общее
    Уникальный идентификатор : 214751839875127102459972950479066704681 (0xA18FB32CD40D59D2B0AA2CBFB3DD2B29)
    Полное имя : C:Delivery.Man.1080.CMEGRoup.mkv
    Формат : Matroska
    Версия формата : Version 2
    Размер файла : 9,20 Гбайт
    Продолжительность : 1 ч. 44 м.
    Общий поток : 12,6 Мбит/сек
    Название фильма : Rip by CMEGRoup
    Дата кодирования : UTC 2014-03-15 14:00:52
    Программа кодирования : mkvmerge v6.7.0 (;Back to the Ground;) 64bit built on Jan 8 2014 15:10:52
    Библиотека кодирования : libebml v1.3.0 libmatroska v1.4.1

    Видео
    Идентификатор : 1
    Формат : AVC
    Формат/Информация : Advanced Video Codec
    Профиль формата : High@L4.1
    Параметр CABAC формата : Да
    Параметр ReFrames формата : 5 кадров
    Идентификатор кодека : V_MPEG4/ISO/AVC
    Продолжительность : 1 ч. 44 м.
    Битрейт : 10,1 Мбит/сек
    Ширина : 1920 пикселей
    Высота : 798 пикселей
    Соотношение сторон : 2,40:1
    Режим частоты кадров : Постоянный
    Частота кадров : 23,976 кадра/сек
    Цветовое пространство : YUV
    Субдискретизация насыщенности : 4:2:0
    Битовая глубина : 8 бит
    Тип развёртки : Прогрессивная
    Бит/(Пиксели*Кадры) : 0.275
    Размер потока : 7,21 Гбайт (78%)
    Заголовок : CMEGRoup
    Библиотека кодирования : x264 core 138 r2358 9e941d1
    Настройки программы : cabac=1 / ref=5 / deblock=1:-3:-3 / analyse=0x3:0x113 / me=umh / subme=11 / psy=1 / psy_rd=1.00:0.00 / mixed_ref=1 / me_range=32 / chroma_me=1 / trellis=2 / 8x8dct=1 / cqm=0 / deadzone=21,11 / fast_pskip=1 / chroma_qp_offset=-2 / threads=12 / lookahead_threads=1 / sliced_threads=0 / nr=0 / decimate=1 / interlaced=0 / bluray_compat=0 / constrained_intra=0 / bframes=5 / b_pyramid=2 / b_adapt=1 / b_bias=0 / direct=2 / weightb=1 / open_gop=0 / weightp=2 / keyint=240 / keyint_min=23 / scenecut=40 / intra_refresh=0 / rc_lookahead=40 / rc=2pass / mbtree=1 / bitrate=10100 / ratetol=1.0 / qcomp=0.60 / qpmin=10 / qpmax=51 / qpstep=4 / cplxblur=20.0 / qblur=0.5 / vbv_maxrate=62500 / vbv_bufsize=78125 / nal_hrd=none / ip_ratio=1.40 / aq=1:1.00 / zones=143880,150743,q=40
    Язык : English
    Default : Да
    Forced : Нет

    Аудио #1
    Идентификатор : 2
    Формат : AC-3
    Формат/Информация : Audio Coding 3
    Расширение режима : CM (complete main)
    Параметр Endianness формата : Big
    Идентификатор кодека : A_AC3
    Продолжительность : 1 ч. 44 м.
    Вид битрейта : Постоянный
    Битрейт : 640 Кбит/сек
    Каналы : 6 каналов
    Расположение каналов : Front: L C R, Side: L R, LFE
    Частота : 48,0 КГц
    Битовая глубина : 16 бит
    Метод сжатия : С потерями
    Размер потока : 480 Мбайт (5%)
    Язык : Russian
    Default : Да
    Forced : Нет

    Аудио #2
    Идентификатор : 3
    Формат : DTS
    Формат/Информация : Digital Theater Systems
    Режим : 16
    Параметр Endianness формата : Big
    Идентификатор кодека : A_DTS
    Продолжительность : 1 ч. 44 м.
    Вид битрейта : Постоянный
    Битрейт : 1509 Кбит/сек
    Каналы : 6 каналов
    Расположение каналов : Front: L C R, Side: L R, LFE
    Частота : 48,0 КГц
    Битовая глубина : 24 бит
    Метод сжатия : С потерями
    Размер потока : 1,11 Гбайт (12%)
    Заголовок : original 1536 kbs
    Язык : English
    Default : Нет
    Forced : Нет

    Аудио #3
    Идентификатор : 4
    Формат : AC-3
    Формат/Информация : Audio Coding 3
    Профиль формата : Dolby Digital
    Расширение режима : CM (complete main)
    Параметр Endianness формата : Big
    Идентификатор кодека : A_AC3
    Продолжительность : 1 ч. 44 м.
    Вид битрейта : Постоянный
    Битрейт : 320 Кбит/сек
    Каналы : 2 канала
    Расположение каналов : Front: L R
    Частота : 48,0 КГц
    Битовая глубина : 16 бит
    Метод сжатия : С потерями
    Размер потока : 240 Мбайт (3%)
    Заголовок : Commentary
    Язык : English
    Default : Нет
    Forced : Нет

    Текст #1
    Идентификатор : 5
    Формат : UTF-8
    Идентификатор кодека : S_TEXT/UTF8
    Идентификатор кодека/Информация : UTF-8 Plain Text
    Язык : Russian
    Default : Да
    Forced : Нет

    Текст #2
    Идентификатор : 6
    Формат : UTF-8
    Идентификатор кодека : S_TEXT/UTF8
    Идентификатор кодека/Информация : UTF-8 Plain Text
    Язык : Russian
    Default : Нет
    Forced : Нет

    Текст #3
    Идентификатор : 7
    Формат : UTF-8
    Идентификатор кодека : S_TEXT/UTF8
    Идентификатор кодека/Информация : UTF-8 Plain Text
    Язык : English
    Default : Нет
    Forced : Нет

    Меню
    00:00:00.000 : en:00:00:00.000
    00:04:12.335 : en:00:04:12.335
    00:10:42.392 : en:00:10:42.392
    00:15:03.861 : en:00:15:03.861
    00:21:04.054 : en:00:21:04.054
    00:27:42.494 : en:00:27:42.494
    00:35:00.557 : en:00:35:00.557
    00:40:03.401 : en:00:40:03.401
    00:45:06.287 : en:00:45:06.287
    00:51:59.116 : en:00:51:59.116
    00:58:35.011 : en:00:58:35.011
    01:04:47.217 : en:01:04:47.217
    01:07:59.325 : en:01:07:59.325
    01:15:05.126 : en:01:15:05.126
    01:20:11.223 : en:01:20:11.223
    01:24:59.678 : en:01:24:59.678
    01:30:48.318 : en:01:30:48.318
    01:39:56.490 : en:01:39:56.490

    Скриншоты для ознакомления




    Размер скачиваемого торрента: 9.20 GB (9881759091 Bytes)

    Отец-молодец / Delivery Man (2013) BDRip 1080p | Лицензия торрент скачать бесплатно
    загрузка...
    Рейтинг →
     (голосов: 1, оценка 5/5, голосовать можно 1 раз )

    Другие торренты по теме:

  • Отец-молодец / Delivery Man (2013) BDRip-AVC | iTunes скачать через торрент бесплатно
  • Отец-молодец / Delivery Man (2013) BDRip 1080p | iTunes скачать через торрент бесплатно
  • Отец-молодец / Delivery Man (2013) BDRip 720p | iTunes скачать через торрент бесплатно
  • Отец-молодец / Delivery Man (2013) HDRip | iTunes скачать через торрент бесплатно
  • Отец-молодец / Delivery Man (2013) HDRip от Torrange | D | iTunes
  • Отец-молодец / Delivery Man (2013) BDRip-AVC от MediaClub | iTunes
  • Отец-молодец / Delivery Man (2013) HDRip от Scarabey | iTunes скачать через торрент бесплатно
  • Отец-молодец / Delivery Man (2013) BDRip 720p от Leonardo and Scarabey | iTunes скачать через торрент бесплатно


    • Комментарии (0):

      Информация

      Информация

        Посетители, находящиеся в группе Гости, не могут оставлять комментарии в данной новости.

        ↓ Меню



        ↓ Опрос

        А Вы добавили сайт в закладки?
        Да
        Не


        Top 10 за месяц (Фильмы)