.
Авторизация | Регистрация
Хочешь лучшие торренты? Добавь свой email!
Добавить
» » Красный код / Code Red (2013) WEB-DL 720p от CINEMANIA | L2 скачать торрент бесплатно




    Красный код / Code Red (2013) WEB-DL 720p от CINEMANIA | L2 скачать торрент бесплатно

    Опубликовал: Админ | Дата: 27-02-2015, 11:10 | Просмотров: 248



    Детально о кино
    Русское название: Красный код
    Русское название в мировом прокате: Code Red
    Создали в: 2013
    Категория жанра: ужасы, триллер
    Главный режиссер: Валерий Милев
    Актеры: Пол Логан, Велизар Бинев, Борислав Илиев, Форбс КБ, Майя-Лесия Нэйлор, Валентин Ганев, Джулиан Костов, Ралика Паскалева

    Сюжет фильма:
    Вторая Мировая война. На территории Болгарии размещена американская военная база, где хранится биологическое оружие, которое может нанести урон всему человечеству. После взрыва на военной базе происходит радиационная утечка. Вскоре на земле начинает твориться что-то невероятное, люди превращаются в зомби. А героине фильма нужно найти свою пропавшую дочь любой ценой...



    Снималось в: США
    Время просмотра: 01:33:55
    Тип перевода: Любительское (двухголосое) Ох! Студия

    Файл
    Тип видео: MKV
    Качество фильма: WEB-DL 720p PHD
    Информация о видео: 4065 kb/s, 1280х718
    Информация о звуке: Russian: AC3, 320 kb/s (2 ch) / English: AC3, 384 kb/s (6 ch)
    Субтитры: English
    Дополнительно: Сохранены оригинальные чаптеры как на Blu Ray
    Размер скачиваемого торрента: 3.19 GB
    Скачать: Сэмпл

    Релиз группы:



    NFO
    Общее
    Code.Red.2013.WEB-DL.720p.CINEMANIA.mkv
    Формат : Matroska
    Версия формата : Version 4 / Version 2
    Размер файла : 3,19 Гбайт
    Продолжительность : 1 ч. 33 м.
    Общий поток : 4866 Кбит/сек
    Название фильма : Release Group CINEMANIA
    Дата кодирования : UTC 2014-03-15 17:12:15
    Программа кодирования : mkvmerge v6.8.0 (;Theme for Great Cities;) 64bit built on Mar 2 2014 21:34:26
    Библиотека кодирования : libebml v1.3.0 libmatroska v1.4.1

    Видео
    Идентификатор : 1
    Формат : AVC
    Формат/Информация : Advanced Video Codec
    Профиль формата : High@L3.1
    Параметр CABAC формата : Нет
    Параметр ReFrames формата : 2 кадра
    Идентификатор кодека : V_MPEG4/ISO/AVC
    Продолжительность : 1 ч. 33 м.
    Битрейт : 4065 Кбит/сек
    Ширина : 1280 пикселей
    Высота : 718 пикселей
    Соотношение сторон : 16:9
    Режим частоты кадров : Постоянный
    Частота кадров : 24,000 кадра/сек
    Цветовое пространство : YUV
    Субдискретизация насыщенности : 4:2:0
    Битовая глубина : 8 бит
    Тип развёртки : Прогрессивная
    Бит/(Пиксели*Кадры) : 0.184
    Размер потока : 2,67 Гбайт (84%)
    Заголовок : Release Group CINEMANIA
    Язык : English
    Default : Да
    Forced : Нет
    Основные цвета : BT.709
    Характеристики трансфера : BT.709
    Коэффициенты матрицы : BT.709

    Аудио #1
    Идентификатор : 2
    Формат : AC-3
    Формат/Информация : Audio Coding 3
    Расширение режима : CM (complete main)
    Параметр Endianness формата : Big
    Идентификатор кодека : A_AC3
    Продолжительность : 1 ч. 33 м.
    Вид битрейта : Постоянный
    Битрейт : 320 Кбит/сек
    Каналы : 2 канала
    Расположение каналов : Front: L R
    Частота : 48,0 КГц
    Битовая глубина : 16 бит
    Метод сжатия : С потерями
    Размер потока : 215 Мбайт (7%)
    Заголовок : Ох! Студия
    Язык : Russian
    Default : Да
    Forced : Да

    Аудио #2
    Идентификатор : 3
    Формат : AC-3
    Формат/Информация : Audio Coding 3
    Расширение режима : CM (complete main)
    Параметр Endianness формата : Big
    Идентификатор кодека : A_AC3
    Продолжительность : 1 ч. 33 м.
    Вид битрейта : Постоянный
    Битрейт : 384 Кбит/сек
    Каналы : 6 каналов
    Расположение каналов : Front: L C R, Side: L R, LFE
    Частота : 48,0 КГц
    Битовая глубина : 16 бит
    Метод сжатия : С потерями
    Размер потока : 258 Мбайт (8%)
    Язык : English
    Default : Нет
    Forced : Нет

    Текст
    Идентификатор : 4
    Формат : UTF-8
    Идентификатор кодека : S_TEXT/UTF8
    Идентификатор кодека/Информация : UTF-8 Plain Text
    Язык : English
    Default : Нет
    Forced : Нет

    Меню
    00:00:00.000 : en:Chapter 1
    00:07:07.000 : en:Chapter 2
    00:16:26.000 : en:Chapter 3
    00:24:11.000 : en:Chapter 4
    00:31:37.000 : en:Chapter 5
    00:38:26.000 : en:Chapter 6
    00:46:06.000 : en:Chapter 7
    00:54:48.000 : en:Chapter 8
    01:02:48.000 : en:Chapter 9
    01:10:47.000 : en:Chapter 10
    01:19:36.000 : en:Chapter 11
    01:24:33.000 : en:Chapter 12

    Залил: DGEKIGAN
    Размер скачиваемого торрента: 3.19 GB (3427378694 Bytes)

    Красный код / Code Red (2013) WEB-DL 720p от CINEMANIA | L2 торрент скачать бесплатно
    загрузка...
    Рейтинг →
     (голосов: 1, оценка 4/5, голосовать можно 1 раз )

    Другие торренты по теме:

  • Красный код / Code Red (2013) DVDRip | L2 скачать через торрент бесплатно
  • Красный код / Code Red (2013) DVDRip


    • Комментарии (0):

      Информация

      Информация

        Посетители, находящиеся в группе Гости, не могут оставлять комментарии в данной новости.

        ↓ Меню



        ↓ Опрос

        А Вы добавили сайт в закладки?
        Да
        Не


        Top 10 за месяц (Фильмы)