.
Авторизация | Регистрация
Хочешь лучшие торренты? Добавь свой email!
Добавить
» » Эмпайр Стэйт / Empire State (2014) BDRip от New-Team | P | лицензия скачать торрент бесплатно




    Эмпайр Стэйт / Empire State (2014) BDRip от New-Team | P | лицензия скачать торрент бесплатно

    Опубликовал: Админ | Дата: 27-02-2015, 11:10 | Просмотров: 303

    Based on a true story



    Снималось в: США / 24P Media Group, Emmett/Furla Films, Envision Entertainment Corporation...

    Категория жанра: криминал, драма
    Создали в: 2012
    Время просмотра: 01:34:20
    Перевод текста: Профессиональный (многоголосый закадровый)
    Субтитры подготовлены: английский, английский (SDH)
    Оригинальная аудиодорожка: английский

    Главный режиссер: Дито Монтиель / Dito Montiel

    Актеры: Лиам Хемсворт, Майкл Ангарано, Дуэйн Джонсон, Грегори Николас Вротсос, Джерри Феррара, Эмма Робертс, Майкл Рисполи, Пол Бен-Виктор, Шэрон Анджела, Крис, Диамантополос...

    Сюжет: В этом триллере, основанном на реальных событиях, речь пойдет о произошедшем в 1982 году в Нью-Йорке ограблении инкассаторских бронеавтомобилей, которое на тот момент считалось крупнейшим в США.



    Качество фильма: BDRip / BDRemux 1080p
    Тип видео: AVI

    Информация о видео: 720x304 (2.35:1), 23.976 fps, XviD ~ 2419 kbps avg, 0.461 bit/pixel
    Информация о звуке 1: 48 kHz, Dolby AC3, 6 ch, 448 kbps, русский
    Информация о звуке 2: 48 kHz, Dolby AC3, 6 ch, 448 kbps, английский

    Раздача от:
    MediaInfo

    Общее
    Полное имя : Empair.Steyt.2012.P.BDRip.2.18GB_New-Team_by_avproh.avi
    Формат : AVI
    Формат/Информация : Audio Video Interleave
    Профиль формата : OpenDML
    Размер файла : 2,20 Гбайт
    Продолжительность : 1 ч. 34 м.
    Общий поток : 3332 Кбит/сек
    Программа кодирования : VirtualDubModRus 1.5.10.2 (build 2542/release)
    Библиотека кодирования : VirtualDubMod build 2542/release

    Видео
    Идентификатор : 0
    Формат : MPEG-4 Visual
    Профиль формата : Advanced Simple@L5
    Параметр BVOP формата : 1
    Параметр QPel формата : Нет
    Параметр GMC формата : Без точки перехода
    Параметр матрицы формата : Выборочная
    Идентификатор кодека : XVID
    Идентификатор кодека/Подсказка : XviD
    Продолжительность : 1 ч. 34 м.
    Битрейт : 2419 Кбит/сек
    Ширина : 720 пикселей
    Высота : 304 пикселя
    Соотношение сторон : 2,35:1
    Частота кадров : 23,976 кадра/сек
    Цветовое пространство : YUV
    Субдискретизация насыщенности : 4:2:0
    Битовая глубина : 8 бит
    Тип развёртки : Прогрессивная
    Метод сжатия : С потерями
    Бит/(Пиксели*Кадры) : 0.461
    Размер потока : 1,59 Гбайт (73%)
    Библиотека кодирования : XviD 73

    Аудио #1
    Идентификатор : 1
    Формат : AC-3
    Формат/Информация : Audio Coding 3
    Расширение режима : CM (complete main)
    Параметр Endianness формата : Big
    Идентификатор кодека : 2000
    Продолжительность : 1 ч. 34 м.
    Вид битрейта : Постоянный
    Битрейт : 448 Кбит/сек
    Каналы : 6 каналов
    Расположение каналов : Front: L C R, Side: L R, LFE
    Частота : 48,0 КГц
    Битовая глубина : 16 бит
    Метод сжатия : С потерями
    Размер потока : 302 Мбайт (13%)
    Выравнивание : Разделение по промежуткам
    Продолжительность промежутка : 42 мс. (1,00 видеокадр)
    Время предзагрузки промежутка : 500 мс.

    Аудио #2
    Идентификатор : 2
    Формат : AC-3
    Формат/Информация : Audio Coding 3
    Расширение режима : CM (complete main)
    Параметр Endianness формата : Big
    Идентификатор кодека : 2000
    Продолжительность : 1 ч. 34 м.
    Вид битрейта : Постоянный
    Битрейт : 448 Кбит/сек
    Каналы : 6 каналов
    Расположение каналов : Front: L C R, Side: L R, LFE
    Частота : 48,0 КГц
    Битовая глубина : 16 бит
    Метод сжатия : С потерями
    Размер потока : 302 Мбайт (13%)
    Выравнивание : Разделение по промежуткам
    Продолжительность промежутка : 42 мс. (1,00 видеокадр)
    Время предзагрузки промежутка : 500 мс.

    Скриншоты для ознакомления:



    Залил: avproh
    Размер скачиваемого торрента: 2.20 GB (2358126023 Bytes)

    Эмпайр Стэйт / Empire State (2014) BDRip от New-Team | P | лицензия торрент скачать бесплатно
    загрузка...
    Рейтинг →
     (голосов: 1, оценка 3/5, голосовать можно 1 раз )

    Другие торренты по теме:

  • Эмпайр Стэйт / Empire State (2013) BDRip-AVC от HELLYWOOD | P2
  • Эмпайр Стэйт / Empire State (2013) BDRip 720p | L2
  • Эмпайр Стэйт / Empire State (2013) HDRip | L2
  • Эмпайр Стэйт / Empire State (2013) BDRip 720p от leonardo 59 Scarabey | P2
  • Эмпайр Стэйт / Empire State (2013) BDRip от Rulya74 | P2. A скачать через торрент бесплатно
  • Эмпайр Стэйт / Empire State (2012) BDRemux 1080p от New-Team | P, P2, A | лицензия
  • Эмпайр Стэйт / Empire State (2013) BDRip 720p от Leonardo and Scarabey | P | Лицензия скачать через торрент бесплатно
  • Эмпайр Стэйт / Empire State (2013) BDRip-AVC от New-Team | P | лицензия скачать через торрент бесплатно


    • Комментарии (0):

      Информация

      Информация

        Посетители, находящиеся в группе Гости, не могут оставлять комментарии в данной новости.

        ↓ Меню



        ↓ Опрос

        А Вы добавили сайт в закладки?
        Да
        Не


        Top 10 за месяц (Фильмы)