.
Авторизация | Регистрация
Хочешь лучшие торренты? Добавь свой email!
Добавить
» » Эмпайр Стэйт / Empire State (2012) BDRemux 1080p от New-Team | P, P2, A | лицензия скачать торрент бесплатно




    Эмпайр Стэйт / Empire State (2012) BDRemux 1080p от New-Team | P, P2, A | лицензия скачать торрент бесплатно

    Опубликовал: Админ | Дата: 27-02-2015, 11:10 | Просмотров: 229

    Based on a true story



    Снималось в: США / 24P Media Group, Emmett/Furla Films, Envision Entertainment Corporation...

    Категория жанра: криминал, драма
    Создали в: 2012
    Время просмотра: 01:34:20
    Перевод текста: Профессиональный (многоголосый закадровый) Двухголосый Авторский (Володарский)
    Субтитры подготовлены: английский, английский (SDH)
    Оригинальная аудиодорожка: английский

    Главный режиссер: Дито Монтиель / Dito Montiel

    Актеры: Лиам Хемсворт, Майкл Ангарано, Дуэйн Джонсон, Грегори Николас Вротсос, Джерри Феррара, Эмма Робертс, Майкл Рисполи, Пол Бен-Виктор, Шэрон Анджела, Крис, Диамантополос...

    Сюжет: В этом триллере, основанном на реальных событиях, речь пойдет о произошедшем в 1982 году в Нью-Йорке ограблении инкассаторских бронеавтомобилей, которое на тот момент считалось крупнейшим в США.



    Качество фильма: BDRemux 1080p
    Тип видео: AVI

    Информация о видео: MPEG-4 AVC / 17996 kbps / 1920x1080 / 23,976 fps / 16:9 / High Profile 4.1
    Информация о звуке 1: 48 kHz, Dolby AC3, 6 ch, 448 kbps, русский |MVO|
    Информация о звуке 2: AC3 / 5.1 / 48 kHz / 448 kbps / 16 bits |DVO|
    Информация о звуке 3: DTS-HD Master Audio / 5.1 / 48 kHz / 3455 kbps / 24 bits (DTS Core: 5.1 / 48 kHz / 1509 kbps / 24 bits) |Л. Володарский|
    Информация о звуке 4: DTS-HD Master Audio / 5.1 / 48 kHz / 3432 kbps / 24 bits (DTS Core: 5.1 / 48 kHz / 1509 kbps / 24 bits) |original|
    Тип видео субтитров: SoftSub (srt)

    Дополнительно: Фильм разбит на главы, как на оригинальном Blu-ray диске.

    Раздача от:
    MediaInfo

    Общее
    Полное имя : Empair.Steyt.2012.P.BDRemux.1080p.New-Team.mkv
    Формат : Matroska
    Версия формата : Version 4 / Version 2
    Размер файла : 16,9 Гбайт
    Продолжительность : 1 ч. 34 м.
    Режим общего битрейта : Переменный
    Общий поток : 25,7 Мбит/сек
    Дата кодирования : UTC 2014-03-15 21:40:02
    Программа кодирования : mkvmerge v6.8.0 (;Theme for Great Cities;) 64bit built on Mar 2 2014 21:34:26
    Библиотека кодирования : libebml v1.3.0 libmatroska v1.4.1
    Attachment : Yes

    Видео
    Идентификатор : 1
    Формат : AVC
    Формат/Информация : Advanced Video Codec
    Профиль формата : High@L4.1
    Параметр CABAC формата : Да
    Параметр ReFrames формата : 4 кадра
    Идентификатор кодека : V_MPEG4/ISO/AVC
    Продолжительность : 1 ч. 34 м.
    Вид битрейта : Переменный
    Максимальный битрейт : 37,0 Мбит/сек
    Ширина : 1920 пикселей
    Высота : 1080 пикселей
    Соотношение сторон : 16:9
    Режим частоты кадров : Постоянный
    Частота кадров : 23,976 кадра/сек
    Цветовое пространство : YUV
    Субдискретизация насыщенности : 4:2:0
    Битовая глубина : 8 бит
    Тип развёртки : Прогрессивная
    Default : Да
    Forced : Нет

    Аудио #1
    Идентификатор : 2
    Формат : AC-3
    Формат/Информация : Audio Coding 3
    Расширение режима : CM (complete main)
    Параметр Endianness формата : Big
    Идентификатор кодека : A_AC3
    Продолжительность : 1 ч. 34 м.
    Вид битрейта : Постоянный
    Битрейт : 448 Кбит/сек
    Каналы : 6 каналов
    Расположение каналов : Front: L C R, Side: L R, LFE
    Частота : 48,0 КГц
    Битовая глубина : 16 бит
    Метод сжатия : С потерями
    Размер потока : 303 Мбайт (2%)
    Заголовок : MVO
    Язык : Russian
    Default : Да
    Forced : Нет

    Аудио #2
    Идентификатор : 3
    Формат : AC-3
    Формат/Информация : Audio Coding 3
    Расширение режима : CM (complete main)
    Параметр Endianness формата : Big
    Идентификатор кодека : A_AC3
    Продолжительность : 1 ч. 34 м.
    Вид битрейта : Постоянный
    Битрейт : 448 Кбит/сек
    Каналы : 6 каналов
    Расположение каналов : Front: L C R, Side: L R, LFE
    Частота : 48,0 КГц
    Битовая глубина : 16 бит
    Метод сжатия : С потерями
    Размер потока : 303 Мбайт (2%)
    Заголовок : DVO
    Язык : Russian
    Default : Нет
    Forced : Нет

    Аудио #3
    Идентификатор : 4
    Формат : DTS
    Формат/Информация : Digital Theater Systems
    Профиль формата : MA / Core
    Режим : 16
    Параметр Endianness формата : Big
    Идентификатор кодека : A_DTS
    Продолжительность : 1 ч. 34 м.
    Вид битрейта : Переменный
    Битрейт : Неизвестно / 1509 Кбит/сек
    Каналы : 6 каналов
    Расположение каналов : Front: L C R, Side: L R, LFE
    Частота : 48,0 КГц
    Битовая глубина : 24 бит
    Метод сжатия : Без потерь / Lossy
    Заголовок : Л. Володарский
    Язык : Russian
    Default : Нет
    Forced : Нет

    Аудио #4
    Идентификатор : 5
    Формат : DTS
    Формат/Информация : Digital Theater Systems
    Профиль формата : MA / Core
    Режим : 16
    Параметр Endianness формата : Big
    Идентификатор кодека : A_DTS
    Продолжительность : 1 ч. 34 м.
    Вид битрейта : Переменный
    Битрейт : Неизвестно / 1509 Кбит/сек
    Каналы : 6 каналов
    Расположение каналов : Front: L C R, Side: L R, LFE
    Частота : 48,0 КГц
    Битовая глубина : 24 бит
    Метод сжатия : Без потерь / Lossy
    Язык : English
    Default : Нет
    Forced : Нет

    Текст #1
    Идентификатор : 6
    Формат : UTF-8
    Идентификатор кодека : S_TEXT/UTF8
    Идентификатор кодека/Информация : UTF-8 Plain Text
    Заголовок : full
    Язык : English
    Default : Нет
    Forced : Нет

    Текст #2
    Идентификатор : 7
    Формат : UTF-8
    Идентификатор кодека : S_TEXT/UTF8
    Идентификатор кодека/Информация : UTF-8 Plain Text
    Заголовок : SDH
    Язык : English
    Default : Нет
    Forced : Нет

    Меню
    00:00:00.000 : :Chapter 01
    00:06:06.157 : :Chapter 02
    00:13:03.032 : :Chapter 03
    00:19:22.995 : :Chapter 04
    00:22:39.775 : :Chapter 05
    00:27:36.071 : :Chapter 06
    00:33:38.766 : :Chapter 07
    00:39:55.017 : :Chapter 08
    00:46:00.382 : :Chapter 09
    00:52:26.143 : :Chapter 10
    00:59:47.375 : :Chapter 11
    01:06:38.703 : :Chapter 12
    01:12:29.887 : :Chapter 13
    01:20:12.808 : :Chapter 14
    01:25:26.746 : :Chapter 15
    01:29:23.900 : :Chapter 16

    Скриншоты для ознакомления:



    Залил: avproh
    Размер скачиваемого торрента: 16.93 GB (18181728626 Bytes)

    Эмпайр Стэйт / Empire State (2012) BDRemux 1080p от New-Team | P, P2, A | лицензия торрент скачать бесплатно
    загрузка...
    Рейтинг →
     (голосов: 1, оценка 4/5, голосовать можно 1 раз )

    Другие торренты по теме:

  • Эмпайр Стэйт / Empire State (2013) BDRip-AVC от HELLYWOOD | P2
  • Эмпайр Стэйт / Empire State (2013) BDRip 720p | L2
  • Эмпайр Стэйт / Empire State (2013) HDRip | L2
  • Эмпайр Стэйт / Empire State (2013) BDRip 720p от leonardo 59 Scarabey | P2
  • Эмпайр Стэйт / Empire State (2013) BDRip от Rulya74 | P2. A скачать через торрент бесплатно
  • Эмпайр Стэйт / Empire State (2014) BDRip от New-Team | P | лицензия
  • Эмпайр Стэйт / Empire State (2013) BDRip 720p от Leonardo and Scarabey | P | Лицензия скачать через торрент бесплатно
  • Эмпайр Стэйт / Empire State (2013) BDRip-AVC от New-Team | P | лицензия скачать через торрент бесплатно


    • Комментарии (0):

      Информация

      Информация

        Посетители, находящиеся в группе Гости, не могут оставлять комментарии в данной новости.

        ↓ Меню



        ↓ Опрос

        А Вы добавили сайт в закладки?
        Да
        Не


        Top 10 за месяц (Фильмы)