.
Авторизация | Регистрация
Хочешь лучшие торренты? Добавь свой email!
Добавить
» » Вероника Марс / Veronica Mars (2014) WEB-DL 720p от CINEMANIA | L1 скачать торрент бесплатно




    Вероника Марс / Veronica Mars (2014) WEB-DL 720p от CINEMANIA | L1 скачать торрент бесплатно

    Опубликовал: Админ | Дата: 27-02-2015, 11:10 | Просмотров: 247



    Детально о кино
    Русское название: Вероника Марс
    Русское название в мировом прокате: Veronica Mars
    Создали в: 2014
    Категория жанра: драма, комедия, криминал
    Главный режиссер: Роб Томас
    Актеры: Кристен Белл, Джейсон Доринг, Кристен Риттер, Райан Хансен, Фрэнсис Капра, Перси Даггс III, Крис Лоуэлл, Тина Мажорино, Энрико Колантони, Джеймс Франко

    Сюжет фильма:
    Когда-то помогая отцу распутывать преступления в родном городе Нептун, Вероника Марс понимала, что это не будет длиться вечно. Уехав в Нью-Йорк и получив должность адвоката в хорошей фирме, она была уверена, что вырвалась из замкнутого круга. Она ошибалась. Ее бывший парень Логан Экхолз обвиняется в убийстве своей подруги - молодой старлетки. Приняв решение помочь ему, Вероника возвращается в Нептун и начинает собственное расследование. Внезапно она оказывается в самой гуще событий, окруженная друзьями и врагами. И самый большой вопрос - кому можно верить, а кому - нет...



    Снималось в: США
    Время просмотра: 01:47:37
    Тип перевода: Любительское (одноголосое) qwerty

    Файл
    Тип видео: MKV
    Качество фильма: WEB-DL 720p jAh
    Информация о видео: 3919 kb/s, 1280x530
    Информация о звуке: Russian / English AC3, 384 kb/s (6 ch)
    Субтитры: Russian iTunes Russian, English
    Дополнительно: Сохранены оригинальные чаптеры как на Blu-Ray
    Размер скачиваемого торрента: 3.60 GB
    Скачать: Сэмпл

    Релиз группы:



    NFO
    Общее
    Veronica.Mars.2014.WEB-DL.720p.CINEMANIA.mkv
    Формат : Matroska
    Версия формата : Version 4 / Version 2
    Размер файла : 3,60 Гбайт
    Продолжительность : 1 ч. 47 м.
    Общий поток : 4782 Кбит/сек
    Название фильма : Release Group CINEMANIA
    Дата кодирования : UTC 2014-03-15 22:20:14
    Программа кодирования : mkvmerge v6.8.0 (;Theme for Great Cities;) 64bit built on Mar 2 2014 21:34:26
    Библиотека кодирования : libebml v1.3.0 libmatroska v1.4.1

    Видео
    Идентификатор : 1
    Формат : AVC
    Формат/Информация : Advanced Video Codec
    Профиль формата : Main@L3.1
    Параметр CABAC формата : Нет
    Параметр ReFrames формата : 2 кадра
    Параметр GOP формата : N=1
    Идентификатор кодека : V_MPEG4/ISO/AVC
    Продолжительность : 1 ч. 47 м.
    Битрейт : 3919 Кбит/сек
    Ширина : 1280 пикселей
    Высота : 530 пикселей
    Соотношение сторон : 2,40:1
    Режим частоты кадров : Постоянный
    Частота кадров : 23,976 кадра/сек
    Цветовое пространство : YUV
    Субдискретизация насыщенности : 4:2:0
    Битовая глубина : 8 бит
    Тип развёртки : Прогрессивная
    Бит/(Пиксели*Кадры) : 0.241
    Размер потока : 2,95 Гбайт (82%)
    Заголовок : Release Group CINEMANIA
    Язык : English
    Default : Да
    Forced : Нет
    Основные цвета : BT.709
    Характеристики трансфера : BT.709
    Коэффициенты матрицы : BT.709

    Аудио #1
    Идентификатор : 2
    Формат : AC-3
    Формат/Информация : Audio Coding 3
    Расширение режима : CM (complete main)
    Параметр Endianness формата : Big
    Идентификатор кодека : A_AC3
    Продолжительность : 1 ч. 47 м.
    Вид битрейта : Постоянный
    Битрейт : 384 Кбит/сек
    Каналы : 6 каналов
    Расположение каналов : Front: L C R, Side: L R, LFE
    Частота : 48,0 КГц
    Битовая глубина : 16 бит
    Метод сжатия : С потерями
    Размер потока : 296 Мбайт (8%)
    Заголовок : qwerty
    Язык : Russian
    Default : Да
    Forced : Да

    Аудио #2
    Идентификатор : 3
    Формат : AC-3
    Формат/Информация : Audio Coding 3
    Расширение режима : CM (complete main)
    Параметр Endianness формата : Big
    Идентификатор кодека : A_AC3
    Продолжительность : 1 ч. 47 м.
    Вид битрейта : Постоянный
    Битрейт : 384 Кбит/сек
    Каналы : 6 каналов
    Расположение каналов : Front: L C R, Side: L R, LFE
    Частота : 48,0 КГц
    Битовая глубина : 16 бит
    Метод сжатия : С потерями
    Размер потока : 296 Мбайт (8%)
    Язык : English
    Default : Нет
    Forced : Нет

    Текст #1
    Идентификатор : 4
    Формат : UTF-8
    Идентификатор кодека : S_TEXT/UTF8
    Идентификатор кодека/Информация : UTF-8 Plain Text
    Заголовок : iTunes
    Язык : Russian
    Default : Нет
    Forced : Нет

    Текст #2
    Идентификатор : 5
    Формат : UTF-8
    Идентификатор кодека : S_TEXT/UTF8
    Идентификатор кодека/Информация : UTF-8 Plain Text
    Язык : English
    Default : Нет
    Forced : Нет

    Меню
    00:00:00.000 : en:Chapter 1
    00:13:26.000 : en:Chapter 2
    00:26:21.000 : en:Chapter 3
    00:41:33.000 : en:Chapter 4
    00:57:12.000 : en:Chapter 5
    01:08:19.000 : en:Chapter 6
    01:22:58.000 : en:Chapter 7
    01:35:52.000 : en:Chapter 8


    Залил: DGEKIGAN
    Размер скачиваемого торрента: 3.60 GB (3860469210 Bytes)

    Вероника Марс / Veronica Mars (2014) WEB-DL 720p от CINEMANIA | L1 торрент скачать бесплатно
    загрузка...
    Рейтинг →
     (голосов: 1, оценка 3/5, голосовать можно 1 раз )

    Другие торренты по теме:

  • Вероника Марс / Veronica Mars (2004-2007) WEB-DLRip
  • Вероника Марс / Veronica Mars (2014) WEB-DL 720p | Sub скачать через торрент бесплатно
  • Вероника Марс / Veronica Mars (2014) WEB-DLRip от New-Team | L1
  • Вероника Марс / Veronica Mars (2014) WEB-DLRip-AVC | L1
  • Вероника Марс / Veronica Mars (2014) WEB-DLRIp-AVC от ExKinoRay | L1
  • Вероника Марс / Veronica Mars (2014) WEB-DLRip от New-Team | L | Baibako скачать через торрент бесплатно
  • Вероника Марс / Veronica Mars (2014) WEB-DLRip от Scarabey | BaibaKo скачать через торрент бесплатно
  • OST - Вероника Марс / Veronica Mars (2014) MP3


    • Комментарии (0):

      Информация

      Информация

        Посетители, находящиеся в группе Гости, не могут оставлять комментарии в данной новости.

        ↓ Меню



        ↓ Опрос

        А Вы добавили сайт в закладки?
        Да
        Не


        Top 10 за месяц (Фильмы)