.
Авторизация | Регистрация
Хочешь лучшие торренты? Добавь свой email!
Добавить
» » Кухня (2012-2014) WEB-DLRip, WEB-DLRip-AVC 720p скачать через торрент бесплатно




    Кухня (2012-2014) WEB-DLRip, WEB-DLRip-AVC 720p скачать через торрент бесплатно

    Опубликовал: Админ | Дата: 27-02-2015, 11:10 | Просмотров: 272






    Кухня





    Создали в: 2012-2014
    Снималось в: Россия, YBW Group, СТС
    Категория жанра: Комедия
    Время просмотра: 00:24:00
    Сезон: 1-3
    Серии: 1-48
    Количество серий в сезон любимого сериалае: 60
    Перевод текста :Не требуется
    Субтитры: Нет




    Главный режиссер: Дмитрий Дьяченко


    Актеры: Дмитрий Назаров, Марк Богатырев, Дмитрий Нагиев, Юлия Такшина, Елена Подкаминская, Марина Могилевская, Сергей Лавыгин, Никита Тарасов, Виктор Хориняк, Сергей Епишев, Ольга Кузьмина, Екатерина Кузнецова (IV), Михаил Тарабукин, Виктория Лукина, Елена Чернявская, Виталий Щанников, Сергей Беляев, Роман Индык, Евгения Храповицкая, Серафима Низовская



    Во все времена еда была рядом с людьми. Она искушает, вдохновляет, восхищает, отвращает. Но человек не может без еды, а значит тот, кто создает еду, может управлять миром…. Так думал Максим Лавров, когда шел осуществлять свою мечту — устраиваться поваром в один из самых дорогих ресторанов столицы.

    Мечта сбылась, вот только на деле все вышло не так вкусно. Шеф-повар ресторана Виктор Баринов — настоящая звезда гастрономического бомонда, знающая как угодить взыскательной публике. Оборотная сторона этого идеального образа — злоупотребление алкоголем, страсть к азартным играм и невыносимый характер. В гневе Баринов страшен, в загуле — неукротим.

    Арт-директор Виктория Гончарова — настоящая снежная королева, карьеристка с ледяным сердцем, однако именно с ней Макс проводит ночь до того, как пойти на новую работу. А вся команда поваров только и ждет промашки новичка, чтобы от души посмеяться.
    Главный герой Максим Лавров — выпускник Воронежского кулинарного колледжа — одержим мечтой: стать знаменитым шеф-поваром. Для этого он отправляется в Москву, чтобы устроиться в известнейший и популярный ресторан Клод Моне, хозяином которого является звезда шоу-бизнеса. Шеф-повар ресторана Клод Моне — знаменитый на всю Москву Виктор Баринов. Властный, харизматичный, самодур, пьяница и игрок, но повар от бога. Арт-директор ресторана — Виктория Гончарова. Ей 30, она хитра, образованна, красива. Вся её жизнь — карьера, в ней нет места личной жизни. Сотрудники ресторана работают в условиях вечного конфликта Шеф-повара и Арт-директора. Один ставит во главу угла прекрасно приготовленную на его кухне еду. Другая — сервис и атмосферу зала ресторана, которую создает она. Именно в это заведение и попадает Максим. Парень знает себе цену и всеми способами пытается завоевать доверие шеф-повара и остаться на кухне. Однако отсутствие опыта и чрезмерное желание самоутвердиться ввергают Максима в череду коллизий, которую ему придётся преодолеть, чтобы стать частью этого мира.


    ТЕХ. ДАННЫЕ:

    Качество фильма 1-2 сезон любимого сериалаа:WEB-DLRip-AVC 720p
    Тип видео: MPEG-4
    Информация о видео кодек: H264
    Информация о видео: 3151Кбит/сек,1280х720(16.9),в 25.000кадр/сек,AVC(Baseline@L5.0)(1Ref Frames)
    Информация о звуке кодек: AAC
    Информация о звуке Russian Dolby Digital 5.1:333Кбит/сек,44.1КГц,6каналов,AAC,(Version4)(LC)
    Качество фильма 3 сезон любимого сериалаа:WEB-DLRip-AVC
    Тип видео: MPEG-4
    Информация о видео кодек: H264
    Информация о видео: 2410Кбит/сек,720х480(3/2),в 25.000кадр/сек,AVC(NTSC)(Baseline@L3.0)(1Ref Frames)
    Информация о звуке кодек: AAC
    Информация о звуке Russian Dolby Digital 5.1: 309Кбит/сек,48.0КГц,6каналов,AAC,(Version4)





    Доп. информация:

    Звуковая дорожка сделана путем наложения чистого голоса озвучивателей на центральный канал оригинальной дорожки. Качество идентично звуковой дорожке.



    MediaInfo 1СЕЗОНА

    Общее
    Полное имя : F:К И Н ОН А Ш Е К И Н ОKUHNJA_2012_-_2013_S01_-_S02_RUSSTS_Russia_DD5.1_x264_Nikolai.Baranov_WEB-DLRip.AVC_(720p)S01KUHNJA_2012_S01E01_RUSSTS_Russia_DD5.1_x264_Nikolai.Baranov_WEB-DLRip.AVC_(720p).mp4
    Формат : MPEG-4
    Профиль формата : Base Media
    Идентификатор кодека : isom
    Размер файла : 634 Мбайт
    Продолжительность : 25 м.
    Режим общего битрейта : Переменный
    Общий поток : 3488 Кбит/сек
    Дата кодирования : UTC 2013-03-28 12:17:43
    Дата пометки : UTC 2013-03-28 12:17:43
    Программа кодирования : Lavf51.12.1

    Видео
    Идентификатор : 1
    Формат : AVC
    Формат/Информация : Advanced Video Codec
    Профиль формата : Baseline@L5.0
    Параметр CABAC формата : Нет
    Параметр ReFrames формата : 1 кадр
    Параметр GOP формата : M=1, N=12
    Идентификатор кодека : avc1
    Идентификатор кодека/Информация : Advanced Video Coding
    Продолжительность : 25 м.
    Вид битрейта : Переменный
    Битрейт : 3151 Кбит/сек
    Максимальный битрейт : 4500 Кбит/сек
    Ширина : 1280 пикселей
    Высота : 720 пикселей
    Соотношение сторон : 16:9
    Режим частоты кадров : Постоянный
    Частота кадров : 25,000 кадров/сек
    Частота кадров в оригинале : 24,000 кадра/сек
    Цветовое пространство : YUV
    Субдискретизация насыщенности : 4:2:0
    Битовая глубина : 8 бит
    Тип развёртки : Прогрессивная
    Бит/(Пиксели*Кадры) : 0.137
    Размер потока : 572 Мбайт (90%)
    Дата кодирования : UTC 2013-03-28 12:17:43
    Дата пометки : UTC 2013-03-28 12:17:43

    Аудио
    Идентификатор : 2
    Формат : AAC
    Формат/Информация : Advanced Audio Codec
    Профиль формата : LC
    Идентификатор кодека : 40
    Продолжительность : 25 м.
    Вид битрейта : Переменный
    Битрейт : 333 Кбит/сек
    Каналы : 6 каналов
    Расположение каналов : Front: L C R, Side: L R, LFE
    Частота : 44,1 КГц
    Метод сжатия : С потерями
    Размер потока : 60,5 Мбайт (10%)
    Дата кодирования : UTC 2013-03-28 12:17:43
    Дата пометки : UTC 2013-03-28 12:17:43



    MediaInfo 2СЕЗОНА

    Общее
    Полное имя : F:К И Н ОН А Ш Е К И Н ОKUHNJA_2012_-_2013_S01_-_S02_RUSSTS_Russia_DD5.1_x264_Nikolai.Baranov_WEB-DLRip.AVC_(720p)S02KUHNJA_2013_S02E01_RUSSTS_Russia_DD5.1_x264_Nikolai.Baranov_WEB-DLRip.AVC_(720p).mp4
    Формат : MPEG-4
    Профиль формата : Base Media
    Идентификатор кодека : isom
    Размер файла : 613 Мбайт
    Продолжительность : 23 м.
    Режим общего битрейта : Переменный
    Общий поток : 3610 Кбит/сек
    Дата кодирования : UTC 2013-03-25 21:31:32
    Дата пометки : UTC 2013-03-25 21:31:32
    Программа кодирования : Lavf51.12.1

    Видео
    Идентификатор : 1
    Формат : AVC
    Формат/Информация : Advanced Video Codec
    Профиль формата : Baseline@L5.0
    Параметр CABAC формата : Нет
    Параметр ReFrames формата : 1 кадр
    Параметр GOP формата : M=1, N=12
    Идентификатор кодека : avc1
    Идентификатор кодека/Информация : Advanced Video Coding
    Продолжительность : 23 м.
    Вид битрейта : Переменный
    Битрейт : 3150 Кбит/сек
    Максимальный битрейт : 4500 Кбит/сек
    Ширина : 1280 пикселей
    Высота : 720 пикселей
    Соотношение сторон : 16:9
    Режим частоты кадров : Постоянный
    Частота кадров : 25,000 кадров/сек
    Частота кадров в оригинале : 24,000 кадра/сек
    Цветовое пространство : YUV
    Субдискретизация насыщенности : 4:2:0
    Битовая глубина : 8 бит
    Тип развёртки : Прогрессивная
    Бит/(Пиксели*Кадры) : 0.137
    Размер потока : 535 Мбайт (87%)
    Дата кодирования : UTC 2013-03-25 21:31:32
    Дата пометки : UTC 2013-03-25 21:31:32

    Аудио
    Идентификатор : 2
    Формат : AAC
    Формат/Информация : Advanced Audio Codec
    Профиль формата : LC
    Идентификатор кодека : 40
    Продолжительность : 23 м.
    Вид битрейта : Переменный
    Битрейт : 456 Кбит/сек
    Каналы : 6 каналов
    Расположение каналов : Front: L C R, Side: L R, LFE
    Частота : 44,1 КГц
    Метод сжатия : С потерями
    Размер потока : 77,5 Мбайт (13%)
    Дата кодирования : UTC 2013-03-25 21:31:32
    Дата пометки : UTC 2013-03-25 21:31:32



    MediaInfo 3СЕЗОНА

    General
    Полное имя : F:К И Н ОН А Ш Е К И Н ОKUHNJA_S01_-_S03_RUSSTS_Russia_DD5.1_x264_Nikolai.Baranov_WEB-DLRip_.WEB-DLRip-AVC_(720p)S03KUHNJA_2014_S03E01_RUSSTS_Russia_DD5.1_x264_Nikolai.Baranov_WEB-DLRip.AVC.mp4
    Формат : MPEG-4
    Профиль формата : Base Media
    Идентификатор кодека : isom
    Размер файла : 524 MiB
    Продолжительность : 26mn 53s
    Режим общего битрейта : Variable
    Общий поток : 2 724 Kbps
    Дата кодирования : UTC 2014-03-05 14:02:56
    Дата пометки : UTC 2014-03-05 14:02:56
    Программа кодирования : Lavf51.12.1

    Video
    Идентификатор : 1
    Формат : AVC
    Формат/Информация : Advanced Video Codec
    Профиль формата : Baseline@L3.0
    Параметр CABAC формата : No
    Параметр ReFrames формата : 1 frame
    Параметр GOP формата : M=1, N=12
    Идентификатор кодека : avc1
    Идентификатор кодека/Информация : Advanced Video Coding
    Продолжительность : 26mn 53s
    Вид битрейта : Variable
    Битрейт : 2 410 Kbps
    Максимальный битрейт : 3 450 Kbps
    Ширина : 720 pixels
    Высота : 480 pixels
    Соотношение сторон : 3:2
    Режим частоты кадров : Constant
    Частота кадров : 25.000 fps
    Частота кадров в оригинале : 24.000 fps
    Стандарт вещания : NTSC
    Цветовое пространство : YUV
    Субдискретизация насыщенности : 4:2:0
    Битовая глубина : 8 bits
    Тип развёртки : Progressive
    Бит/(Пиксели*Кадры) : 0.279
    Размер потока : 464 MiB (88%)
    Дата кодирования : UTC 2014-03-05 14:02:56
    Дата пометки : UTC 2014-03-05 14:02:56

    Audio
    Идентификатор : 2
    Формат : AAC
    Формат/Информация : Advanced Audio Codec
    Профиль формата : LC
    Идентификатор кодека : 40
    Продолжительность : 26mn 53s
    Вид битрейта : Variable
    Битрейт : 309 Kbps
    Каналы : 6 channels
    Расположение каналов : Front: L C R, Side: L R, LFE
    Частота : 48.0 KHz
    Метод сжатия : Lossy
    Размер потока : 59.4 MiB (11%)
    Дата кодирования : UTC 2014-03-05 14:02:56
    Дата пометки : UTC 2014-03-05 14:02:56



    Скриншоты для ознакомления 1СЕЗОНА






    Скриншоты для ознакомления 2СЕЗОНА






    Скриншоты для ознакомления 3СЕЗОНА






    1СЕЗОНА


    2СЕЗОНА


    3СЕЗОНА


    Внимание! Раздача пополняется по мере выхода новых серий!


    Внимание! Раздача ведётся путём добавления новых серий!


    Раздача ведётся путём добавления новых серий; при каждом добавлении создётся новый торрент.
    Чтобы начать докачку новой серии, пользователям необходимо сделать следующее:
    1. остановить скачивание,
    2. удалить старый торрент у себя из клиента (старые серии удалять не надо),
    3. скачать новый торрент и запустить его у себя в клиенте вместо старого, при этом указать клиенту путь в старую папку, куда и должно происходить скачивание новых серий.

    Ваш клиент при этом должен произвести хеширование (проверку) старой папки (если не производит сам - помогите ему сделать это), и будет докачивать только те серии которых у вас ещё нет. Старые серии при этом не удаляются, а продолжают раздаваться!

    Eсли вы уже удалили старые серии, то предотвратить повторную закачку старых серий можно, отжав галочку в соответсвующих местах при запуске нового торрента. По возможности, желательно не удалять старые серии как можно дольше, чтобы релизёр не столько продолжал раздавать старые серии, а смог сконцентрироваться на новых.

    Совет для тех, кто не хочет ждать перехеширования:
    Создайте ещё одну папку рядом с папкой сериала (рядом, а не в ней!!!). Каждую новую серию после удачной загрузки копируйте в новую папку так чтобы ваша основная папка всегда была пуста. Когда ваш новый торрент предложит вам закачать все файлы, выберете только последнюю. Для сидирования же укажите адрес новой папки.

    Как закачать отдельный файл из торрента или докачать ранее пропущенные файлы торрента!

    Как закачать отдельный файл

    1. Открыть торрент
    2. Снять галки с тех файлов торрента, которые мы не хотим закачивать. Оставляем только на нужных нам файлах (файле).
    3. Нажать О.К.

    В клиенте utorrent

    Инструкция

    1) Открыть торрент


    2) Снять галки с тех файлов торрента, которые мы не хотим закачивать:

    * либо вручную, снимая с каждого файла галку( скрин №1)
    * либо, нажав кнопку Снять метки (Select None), сняв сразу со всех файлов(скрин №2)
    №1

    №2

    Оставляем только на нужных нам файлах (файле).

    3)Нажать О.К







    Внимание!!! 14.03. 2014. РАЗДАЧА ОБНОВЛЕНА.ОБНОВИТЕ ТОРЕНТ ФАЙЛ.ПРИЯТНОГО ПРОСМОТРА .


    Релиз подготовил: Nikolai.Baranov











    Залил: NIKOLAI.BARANOV
    Размер скачиваемого торрента: 27.74 GB (29784446070 Bytes)

    Кухня (2012-2014) WEB-DLRip, WEB-DLRip-AVC 720p скачать через торрент бесплатно
    загрузка...
    Рейтинг →
     (голосов: 1, оценка 3/5, голосовать можно 1 раз )

    Другие торренты по теме:

  • Ёсимото Банана - Кухня, Полная луна (Кухня-2) (2004) FB2, TXT
  • Кухня. Фильм о фильме (Кухня кухни) (2014) DVB
  • Кухня. Фильм о фильме (Кухня кухни) (2014) WEBRip-AVC скачать через торрент бесплатно
  • Адская кухня / Hells Kitchen (2012) TVRip от Files-x
  • Французская кухня у вас дома с Лаурой Колдер / French Food at Home with Laura Calder (2007-2008) SATRip
  • Адская кухня 2 (2013) IPTVRip
  • Любовь и кухня / Loves Kitchen (2011) HDRip | Лицензия
  • И.А. Фельдман - Кухня Народов СССР (1990) PDF от RG Superdetki


    • Комментарии (0):

      Информация

      Информация

        Посетители, находящиеся в группе Гости, не могут оставлять комментарии в данной новости.

        ↓ Меню



        ↓ Опрос

        А Вы добавили сайт в закладки?
        Да
        Не


        Top 10 за месяц (Фильмы)