.
Авторизация | Регистрация
Хочешь лучшие торренты? Добавь свой email!
Добавить
» » Эксперимент Ганцфельда / The Ganzfeld Haunting (2014) WEB-DLRip-AVC | L1 скачать через торрент бесплатно




    Эксперимент Ганцфельда / The Ganzfeld Haunting (2014) WEB-DLRip-AVC | L1 скачать через торрент бесплатно

    Опубликовал: Админ | Дата: 27-02-2015, 11:10 | Просмотров: 270



    Детально о кино
    Русское название: Эксперимент Ганцфельда
    Русское название в мировом прокате: The Ganzfeld Haunting
    Создали в: 2014
    Категория жанра: ужасы, триллер
    Главный режиссер: Майкл Обловитц
    Актеры: Дианна Камачо, Тейлор Коул, Райан Доноху, Кимберли Эстрада, Микайла Фигуроа, Тоби Хемингуэй, Коуди Хауэлл, Холт МакКэллани, Доминик Пёрселл, Рико Симонини

    Сюжет фильма:
    Четыре студента-психолога собираются вместе в уединенном доме на выходные для того, чтобы попытаться провести эксперимент Ганцфельда, иначе говоря — тест на паранормальные способности.




    Снималось в: США
    Киностудия: Bon Vivant Films, Concrete Images, Minus Zero Films, The Ganzfeld Experiment Film
    Время просмотра: 01:26:04
    Перевод текста: Любительское (одноголосое) Xixidok

    Файл
    Кодек для видео: h.264
    Качество фильма: WEB-DLRip-AVC
    Информация о видео: AVC, 1024 x 436, ~1798 kbps
    Информация о звуке: Русский: MP3, 192 kb/s (2 ch) / Английский: AC3, 384 kb/s (6 ch)


    Семпл

    Скриншоты для ознакомления
    MI
    Общее
    Уникальный идентификатор : 168348648403719580577546155723716462494 (0x7EA6C532C2870C1E037BA147C20E879E)
    Полное имя : G:Эксперимент Ганцфельда The Ganzfeld Haunting (2014) WEB-DLRip-AVC L1The.Ganzfeld.Haunting.2014.WEB-DLRip-AVC..mkv
    Формат : Matroska
    Версия формата : Version 2
    Размер файла : 1,46 Гбайт
    Продолжительность : 1 ч. 26 м.
    Режим общего битрейта : Переменный
    Общий поток : 2422 Кбит/сек
    Программа кодирования : Lavf51.12.1
    Библиотека кодирования : Lavf51.12.1

    Видео
    Идентификатор : 1
    Формат : AVC
    Формат/Информация : Advanced Video Codec
    Профиль формата : Baseline@L3.1
    Параметр CABAC формата : Нет
    Параметр ReFrames формата : 1 кадр
    Параметр GOP формата : M=1, N=12
    Идентификатор кодека : V_MPEG4/ISO/AVC
    Продолжительность : 1 ч. 26 м.
    Вид битрейта : Переменный
    Битрейт : 1798 Кбит/сек
    Максимальный битрейт : 2790 Кбит/сек
    Ширина : 1024 пикселя
    Высота : 436 пикселей
    Соотношение сторон : 2,35:1
    Соотношение сторон в оригинале : 2,35:1
    Режим частоты кадров : Постоянный
    Частота кадров : 23,976 кадра/сек
    Частота кадров в оригинале : 24,000 кадра/сек
    Цветовое пространство : YUV
    Субдискретизация насыщенности : 4:2:0
    Битовая глубина : 8 бит
    Тип развёртки : Прогрессивная
    Бит/(Пиксели*Кадры) : 0.168
    Размер потока : 1,08 Гбайт (74%)
    Язык : English
    Default : Да
    Forced : Нет

    Аудио #1
    Идентификатор : 2
    Формат : MPEG Audio
    Версия формата : Version 1
    Профиль формата : Layer 3
    Режим : Joint stereo
    Расширение режима : MS Stereo
    Идентификатор кодека : A_MPEG/L3
    Идентификатор кодека/Подсказка : MP3
    Продолжительность : 1 ч. 26 м.
    Вид битрейта : Постоянный
    Битрейт : 192 Кбит/сек
    Каналы : 2 канала
    Частота : 44,1 КГц
    Метод сжатия : С потерями
    Размер потока : 118 Мбайт (8%)
    Библиотека кодирования : LAME3.97
    Язык : Russian
    Default : Да
    Forced : Нет

    Аудио #2
    Идентификатор : 3
    Формат : AC-3
    Формат/Информация : Audio Coding 3
    Расширение режима : CM (complete main)
    Параметр Endianness формата : Big
    Идентификатор кодека : A_AC3
    Продолжительность : 1 ч. 26 м.
    Вид битрейта : Постоянный
    Битрейт : 384 Кбит/сек
    Каналы : 6 каналов
    Расположение каналов : Front: L C R, Side: L R, LFE
    Частота : 48,0 КГц
    Битовая глубина : 16 бит
    Метод сжатия : С потерями
    Размер потока : 236 Мбайт (16%)
    Язык : English
    Default : Да
    Forced : Нет

    Размер скачиваемого торрента: 1.46 GB (1563485606 Bytes)

    Эксперимент Ганцфельда / The Ganzfeld Haunting (2014) WEB-DLRip-AVC | L1 скачать через торрент бесплатно
    загрузка...
    Рейтинг →
     (голосов: 1, оценка 5/5, голосовать можно 1 раз )

    Другие торренты по теме:

  • Эксперимент Ганцфельда / The Ganzfeld Haunting (2014) WEB-DL 720p от CINEMANIA | L1
  • Эксперимент Ганцфельда / The Ganzfeld Haunting (2014) WEB-DLRip | L1


    • Комментарии (0):

      Информация

      Информация

        Посетители, находящиеся в группе Гости, не могут оставлять комментарии в данной новости.

        ↓ Меню



        ↓ Опрос

        А Вы добавили сайт в закладки?
        Да
        Не


        Top 10 за месяц (Фильмы)