.
Авторизация | Регистрация
Хочешь лучшие торренты? Добавь свой email!
Добавить
» » Сексуальная тварь / Sexy Beast (2000) HDRip-AVC | iPhone | P скачать через торрент бесплатно




    Сексуальная тварь / Sexy Beast (2000) HDRip-AVC | iPhone | P скачать через торрент бесплатно

    Опубликовал: Админ | Дата: 27-02-2015, 11:10 | Просмотров: 199



    Сексуальная тварь / Sexy Beast (2000) HDRip-AVC | iPhone | P

    Русское название: Сексуальная тварь
    Русское название в мировом прокате: Sexy Beast
    Создали в: 2000
    Категория жанра: драма, криминал
    Главный режиссер: Джонатан Глейзер
    Актеры: Рэй Уинстон, Бен Кингсли, Иэн МакШейн, Аманда Редман, Джеймс Фокс, Каван Кендалл, Джулианна Уайт, Альваро Монхе, Роберт Атико, Ниэвес дель Амо Оруэт

    Сюжет фильма:
    Проведя почти всю жизнь за решеткой, гангстер Гэл Доув решил уйти на покой и вместе с любимой женой поселиться в Испании. Но однажды, когда Гэл нежился на солнышке и потягивал пиво, к нему явился незванный гость.
    Бритоголовый Дон Логан, дикий, безумный и злобный кореш Гэла, намерен заставить его вернуться в Лондон, чтобы провернуть последнее, но очень крупное дело - настоящее ограбление века...



    Снималось в: Великобритания, Испания
    Киностудия: FilmFour, Kanzaman S.A., Recorded Picture Company (RPC)
    Время просмотра: 01:28:43
    Перевод текста: Русский профессиональный многоголосый закадровый

    Файл
    Кодек для видео: H.264
    Качество фильма: HDRip-AVC 480p
    Информация о видео: 640x362@852x362 (2.35:1) at 23.976 fps, AVC at 1400 kbps
    Информация о звуке:
    1: АAС 2.0 144 kbps - Русский профессиональный многоголосый закадровый
    2: АAС 2.0 144 kbps - Английский
    Субтитры: Русские

    MI

    General
    Complete name : C:CREATE480outSexy.Beast.2000 (SD).m4v
    Format : MPEG-4
    Codec ID : M4V
    File size : 1.05 GiB
    Duration : 1h 28mn
    Overall bit rate mode : Variable
    Overall bit rate : 1 694 Kbps
    Movie name : Сексуальная тварь
    Performer : Jonathan Glazer
    Genre : Drama
    Recorded date : UTC 2000-09-13 08:00:00
    Encoded date : UTC 2014-03-14 06:40:10
    Tagged date : UTC 2014-03-14 06:45:06
    Copyright : FilmFour, Kanzaman S.A., Recorded Picture Company (RPC)
    Cover : Yes
    Comment : There;s a bit of the beast in all of us
    iTunEXTC : mpaa|R|400|

    sonm : Sexy Beast
    desc : Проведя почти всю жизнь за решеткой, гангстер Гэл Доув решил уйти на покой и вместе с любимой женой поселиться в Испании. Но однажды, когда Гэл нежился на солнышке и потягивал пиво, к нему явился незванный гость.
    ldes : Проведя почти всю жизнь за решеткой, гангстер Гэл Доув решил уйти на покой и вместе с любимой женой поселиться в Испании. Но однажды, когда Гэл нежился на солнышке и потягивал пиво, к нему явился незванный гость. Бритоголовый Дон Логан, дикий, безумный и злобный кореш Гэла, намерен заставить его вернуться в Лондон, чтобы провернуть последнее, но очень крупное дело - настоящее ограбление века...
    hdvd : 0
    stik : 9
    cnID : 294328724
    xid : Apple:vendor_id:2000-824

    Video
    ID : 1
    Format : AVC
    Format/Info : Advanced Video Codec
    Format profile : Baseline@L3.0
    Format settings, CABAC : No
    Format settings, ReFrames : 2 frames
    Codec ID : avc1
    Codec ID/Info : Advanced Video Coding
    Duration : 1h 28mn
    Bit rate : 1 400 Kbps
    Maximum bit rate : 6 399 Kbps
    Width : 640 pixels
    Height : 362 pixels
    Display aspect ratio : 2.35:1
    Frame rate mode : Constant
    Frame rate : 23.976 fps
    Color space : YUV
    Chroma subsampling : 4:2:0
    Bit depth : 8 bits
    Scan type : Progressive
    Bits/(Pixel*Frame) : 0.252
    Stream size : 888 MiB (83%)
    Title : Sexy Beast _2000_
    Writing library : x264 core 140 r2377 40 929f149 tMod 8-bit@4:2:0 X86_64
    Encoding settings : cabac=0 / ref=2 / deblock=1:-2:-2 / analyse=0x1:0x131 / me=umh / subme=7 / psy=1 / fade_compensate=0.10 / psy_rd=1.00:0.15 / mixed_ref=1 / me_range=32 / chroma_me=1 / trellis=2 / 8x8dct=0 / cqm=0 / deadzone=21,11 / fast_pskip=0 / chroma_qp_offset=-3 / threads=12 / lookahead_threads=2 / sliced_threads=0 / nr=0 / decimate=0 / interlaced=0 / bluray_compat=0 / constrained_intra=0 / fgo=3 / bframes=0 / weightp=0 / keyint=250 / keyint_min=23 / scenecut=40 / intra_refresh=0 / rc_lookahead=96 / rc=2pass / mbtree=1 / bitrate=1400 / ratetol=1.0 / qcomp=0.70 / qpmin=0:0:0 / qpmax=69:69:69 / qpstep=4 / cplxblur=20.0 / qblur=0.5 / vbv_maxrate=5000 / vbv_bufsize=5000 / nal_hrd=none / filler=0 / ip_ratio=1.30 / aq=4:0.90 / aq-sensitivity=10.00 / aq-factor=1.00:1.00:1.00 / aq2=0 / aq3=0
    Language : English
    Encoded date : UTC 2014-03-14 06:40:10
    Tagged date : UTC 2014-03-14 06:40:34
    Matrix coefficients : BT.709

    Audio #1
    ID : 2
    Format : AAC
    Format/Info : Advanced Audio Codec
    Format profile : LC
    Codec ID : 40
    Duration : 1h 28mn
    Bit rate mode : Variable
    Bit rate : 144 Kbps
    Maximum bit rate : 180 Kbps
    Channel(s) : 2 channels
    Channel positions : Front: L R
    Sampling rate : 48.0 KHz
    Compression mode : Lossy
    Stream size : 90.8 MiB (8%)
    Title : MVO
    Language : Russian
    Encoded date : UTC 2014-03-14 06:36:55
    Tagged date : UTC 2014-03-14 06:40:34

    Audio #2
    ID : 3
    Format : AAC
    Format/Info : Advanced Audio Codec
    Format profile : LC
    Codec ID : 40
    Duration : 1h 28mn
    Bit rate mode : Variable
    Bit rate : 144 Kbps
    Maximum bit rate : 187 Kbps
    Channel(s) : 2 channels
    Channel positions : Front: L R
    Sampling rate : 48.0 KHz
    Compression mode : Lossy
    Stream size : 90.0 MiB (8%)
    Title : Original
    Language : English
    Encoded date : UTC 2014-03-14 06:38:29
    Tagged date : UTC 2014-03-14 06:40:34

    Text
    ID : 4
    Format : Timed Text
    Muxing mode : sbtl
    Codec ID : tx3g
    Duration : 1h 24mn
    Bit rate mode : Variable
    Bit rate : 80 bps
    Stream size : 50.0 KiB (0%)
    Title : Subtitle Russian
    Language : Russian
    Encoded date : UTC 2014-03-14 06:40:34
    Tagged date : UTC 2014-03-14 06:40:34

    Menu
    ID : 5
    Codec ID : text
    Duration : 1h 28mn
    Encoded date : UTC 2014-03-14 06:41:27
    Tagged date : UTC 2014-03-14 06:41:27
    Bit rate mode : CBR
    Duration_LastFrame : -77010

    iTunes tags

    Sort Name: Sexy Beast
    XID: Apple:vendor_id:2000-824
    Content ID: 294328724
    Copyright: FilmFour, Kanzaman S.A., Recorded Picture Company (RPC)
    ScreenWriters: Луис Меллис, Дэвид Синто, Эндрю Майкл Джолли
    Producers: Геркулес Беллвилл, Денис О’Делл, Джереми Томас
    Director: Джонатан Глейзер
    Cast: Рэй Уинстон, Бен Кингсли, Иэн МакШейн, Аманда Редман, Джеймс Фокс, Каван Кендалл, Джулианна Уайт, Альваро Монья, Роберт Атико, Ниэвес дель Амо Оруэт
    Rating: R
    Long Deion: Проведя почти всю жизнь за решеткой, гангстер Гэл Доув решил уйти на покой и вместе с любимой женой поселиться в Испании. Но однажды, когда Гэл нежился на солнышке и потягивал пиво, к нему явился незванный гость. Бритоголовый Дон Логан, дикий, безумный и злобный кореш Гэла, намерен заставить его вернуться в Лондон, чтобы провернуть последнее, но очень крупное дело - настоящее ограбление века...
    Deion: Проведя почти всю жизнь за решеткой, гангстер Гэл Доув решил уйти на покой и вместе с любимой женой поселиться в Испании. Но однажды, когда Гэл нежился на солнышке и потягивал пиво, к нему явился незванный гость.
    Release Date: 2000-09-13T08:00:00Z
    Genre: Drama
    Artist: Jonathan Glazer
    Name: Сексуальная тварь
    Comments: There;s a bit of the beast in all of us
    x264

    x264 info: frame I:2958 Avg QP:19.91 size: 16470
    x264 info: frame P:124665 Avg QP:21.95 size: 7082
    x264 info: mb I I16..4: 48.4% 0.0% 51.6%
    x264 info: mb P I16..4: 0.6% 0.0% 0.4% P16..4: 51.0% 16.4% 12.8% 1.2% 0.8% skip:16.7%
    x264 info: coded y,uvDC,uvAC intra: 50.5% 56.5% 34.1% inter: 36.6% 29.4% 15.4%
    x264 info: i16 v,h,dc,p: 50% 12% 9% 30%
    x264 info: i4 v,h,dc,ddl,ddr,vr,hd,vl,hu: 31% 13% 18% 7% 7% 8% 5% 7% 4%
    x264 info: i8c dc,h,v,p: 60% 12% 21% 7%
    x264 info: ref P L0: 77.8% 22.2%
    x264 info: kb/s:1400.06




    Залил: gekka
    Размер скачиваемого торрента: 1.05 GB (1127259396 Bytes)

    Сексуальная тварь / Sexy Beast (2000) HDRip-AVC | iPhone | P скачать через торрент бесплатно
    загрузка...
    Рейтинг →
     (голосов: 1, оценка 4/5, голосовать можно 1 раз )

    Другие торренты по теме:

  • Сексуальная тварь / Sexy Beast (2000) HDRip-AVC | iPhone
  • Сексуальная тварь / Sexy Beast (2000) ВDRip 720p
  • Сексуальная тварь / Sexy Beast (2000) BDRip 720p от denis 100 | P,P2,A скачать через торрент бесплатно
  • Сексуальная тварь / Sexy Beast (2000) BDRip 1080p by msltel | P, P2, A скачать через торрент бесплатно
  • Сексуальная тварь / Sexy Beast (2000) HDRip-AVC | P скачать через торрент бесплатно


    • Комментарии (0):

      Информация

      Информация

        Посетители, находящиеся в группе Гости, не могут оставлять комментарии в данной новости.

        ↓ Меню



        ↓ Опрос

        А Вы добавили сайт в закладки?
        Да
        Не


        Top 10 за месяц (Фильмы)