.
Авторизация | Регистрация
Хочешь лучшие торренты? Добавь свой email!
Добавить
» » Ccccccc / Шипение кобры / Sssssss (1973) DVDRip скачать через торрент бесплатно




    Ccccccc / Шипение кобры / Sssssss (1973) DVDRip скачать через торрент бесплатно

    Опубликовал: Админ | Дата: 27-02-2015, 11:10 | Просмотров: 257

    Ccccccc / Шипение кобры / Sssssss



    Снималось в: США
    Категория жанра: Ужасы, фантастика, триллер
    Создали в: 1973
    Время просмотра: 01:38:50

    Перевод текста: Одноголосый закадровый Доп. инфо о переводе © almoner
    Субтитры подготовлены: русские
    Оригинальная аудиодорожка: английский

    Главный режиссер: Бернард Л. Ковальски / Bernard L. Kowalski

    Актеры: Стразер Мартин, Дирк Бенедикт, Хезер Мензес, Ричард Б. Шалл, Тим О’Коннор, Джек Джинг, Кэтлин Кинг, Рэб Браун, Тед Гроссман, Чарльз Сил

    Сюжет: Доктор Карл Стоунер, специалист по змеям, нанимает себе помощника — студента колледжа Дэвида Блэйка, поскольку его предыдущий ассистент, Тим МакГро, внезапно уехал. Постепенно Дэвид Блэйк становится участником рискованных научных экспериментов профессора...


    Фильм - участник конкурсной программы Международного фестиваля фантастических фильмов в Авориазе 1974 года
    В 1975 году Американской Академией научной фантастики, фэнтези и фильмов ужасов фильм был номинирован на Премию Золотой свиток (в последующем Сатурн) в категории Лучший научно-фантастический фильм

    Качество фильма видео: DVDRip
    Тип видео видео: AVI

    Информация о видео: XviD, 640:360, 16:9, 29,970 кадров/сек, 760 Кбит/сек
    Информация о звуке: MP3, 44,1 КГц, 128 Кбит/сек, 2.0, Russian
    Информация о звуке 2: MP3, 44,1 КГц, 160 Кбит/сек, 2.0, English
    Тип видео субтитров: softsub (SRT)


    Доп. информация о субтитрах: © almoner
    MediaInfo


    Общее
    Полное имя : D:sssssss_002.avi
    Формат : AVI
    Формат/Информация : Audio Video Interleave
    Размер файла : 754 Мбайт
    Продолжительность : 1 ч. 38 м.
    Общий поток : 1066 Кбит/сек
    Программа кодирования : VirtualDubMod 1.5.10.3 (build 2550/release)
    Библиотека кодирования : VirtualDubMod build 2550/release

    Видео
    Идентификатор : 0
    Формат : MPEG-4 Visual
    Профиль формата : Advanced Simple@L5
    Параметр BVOP формата : 2
    Параметр QPel формата : Нет
    Параметр GMC формата : Без точки перехода
    Параметр матрицы формата : Default (H.263)
    Режим смешивания : Сжатый битовый поток
    Идентификатор кодека : XVID
    Идентификатор кодека/Подсказка : XviD
    Продолжительность : 1 ч. 38 м.
    Битрейт : 760 Кбит/сек
    Ширина : 640 пикселей
    Высота : 360 пикселей
    Соотношение сторон : 16:9
    Частота кадров : 29,970 кадров/сек
    Цветовое пространство : YUV
    Субдискретизация насыщенности : 4:2:0
    Битовая глубина : 8 бит
    Тип развёртки : Прогрессивная
    Метод сжатия : С потерями
    Бит/(Пиксели*Кадры) : 0.110
    Размер потока : 537 Мбайт (71%)
    Библиотека кодирования : XviD 62

    Аудио #1
    Идентификатор : 1
    Формат : MPEG Audio
    Версия формата : Version 1
    Профиль формата : Layer 3
    Режим : Joint stereo
    Расширение режима : MS Stereo
    Идентификатор кодека : 55
    Идентификатор кодека/Подсказка : MP3
    Продолжительность : 1 ч. 38 м.
    Вид битрейта : Постоянный
    Битрейт : 128 Кбит/сек
    Каналы : 2 канала
    Частота : 44,1 КГц
    Метод сжатия : С потерями
    Размер потока : 90,5 Мбайт (12%)
    Выравнивание : Разделение по промежуткам
    Продолжительность промежутка : 33 мс. (1,00 видеокадр)
    Время предзагрузки промежутка : 500 мс.

    Аудио #2
    Идентификатор : 2
    Формат : MPEG Audio
    Версия формата : Version 1
    Профиль формата : Layer 3
    Режим : Joint stereo
    Расширение режима : MS Stereo
    Идентификатор кодека : 55
    Идентификатор кодека/Подсказка : MP3
    Продолжительность : 1 ч. 38 м.
    Вид битрейта : Постоянный
    Битрейт : 160 Кбит/сек
    Каналы : 2 канала
    Частота : 44,1 КГц
    Метод сжатия : С потерями
    Размер потока : 113 Мбайт (15%)
    Выравнивание : Разделение по промежуткам
    Продолжительность промежутка : 33 мс. (1,00 видеокадр)
    Время предзагрузки промежутка : 500 мс.
    Библиотека кодирования : LAME3.97


    Скриншот c названием фильма



    Скриншоты для ознакомления



    Размер скачиваемого торрента: 753.60 MB (790204494 Bytes)

    Ccccccc / Шипение кобры / Sssssss (1973) DVDRip скачать через торрент бесплатно
    загрузка...
    Рейтинг →
     (голосов: 1, оценка 4/5, голосовать можно 1 раз )

    Другие торренты по теме:



      Комментарии (0):

      Информация

      Информация

        Посетители, находящиеся в группе Гости, не могут оставлять комментарии в данной новости.

        ↓ Меню



        ↓ Опрос

        А Вы добавили сайт в закладки?
        Да
        Не


        Top 10 за месяц (Фильмы)