.
Авторизация | Регистрация
Хочешь лучшие торренты? Добавь свой email!
Добавить
» » Много шума из ничего / Much Ado About Nothing (2012) BDRemux 1080p от NovaLan скачать торрент бесплатно




    Много шума из ничего / Much Ado About Nothing (2012) BDRemux 1080p от NovaLan скачать торрент бесплатно

    Опубликовал: Админ | Дата: 27-02-2015, 11:10 | Просмотров: 239



    Русское название: Много шума из ничего
    Русское название в мировом прокате: Much Ado About Nothing
    Создали в: 2012
    Категория жанра: Драма, мелодрама, комедия
    Главный режиссер: Джосс Уидон
    Актеры: Эми Экер, Алексис Денисоф, Натан Филлион, Кларк Грегг, Рид Даймонд, Фрэн Кренц, Джиллиан Моргис, Шон Маэр, Спенсер Трит Кларк, Рики Линдхоум
    Сюжет фильма:
    С момента, когда Шекспир писал свои пьесы, прошло уже больше 400 лет, но в отношениях между мужчинами и женщинами ничего не изменилось. Бенедикт - красавец и покоритель женских сердец. Единственная, кто не поддался его чарам - это красавица Беатриче. Острая на язык, она лишь посмеивается над Бенедиктом. Заметив это, их друзья решают затеять хитроумную игру - с тем, чтобы сблизить их. Выгорит ли у них дело?


    Снималось в: США, Bellwether Pictures
    Время просмотра: 01:48:52
    Перевод текста: Профессиональный многоголосый (Лицензия) / Авторский одноголосый (Д. Есарев)

    Кодек для видео: H.264
    Качество фильма: Blu-Ray Remux 1080p
    Информация о видео: MPEG-4 AVC, 36.0 Мбит/с, 1920x1080, 23.976 кадр/с
    Информация о звуке: Русский (AC3, 6 ch, 448 Кбит/с), (AC3, 6 ch, 640 Кбит/с), английский (DTS-HD MA, 6 ch, 1561 Кбит/с), (AC3, 2 ch, 192 Кбит/с)
    Субтитры: Русские, английские

    Инфо-файл

    Полное имя : E:Раздачи_EMuch.Ado.About.Nothing.2012.BDRemux.1080p.NovaLan.mkv
    Формат : Matroska
    Версия формата : Version 4 / Version 2
    Размер файла : 30,3 Гбайт
    Продолжительность : 1 ч. 48 м.
    Режим общего битрейта : Переменный
    Общий поток : 39,8 Мбит/сек
    Название фильма : Much Ado About Nothing 2012 - NovaLan
    Дата кодирования : UTC 2014-03-13 01:17:39
    Программа кодирования : mkvmerge v6.8.0 (;Theme for Great Cities;) 64bit built on Mar 2 2014 21:34:26
    Библиотека кодирования : libebml v1.3.0 libmatroska v1.4.1

    Видео
    Идентификатор : 1
    Формат : AVC
    Формат/Информация : Advanced Video Codec
    Профиль формата : High@L4.1
    Параметр CABAC формата : Да
    Параметр ReFrames формата : 4 кадра
    Идентификатор кодека : V_MPEG4/ISO/AVC
    Продолжительность : 1 ч. 48 м.
    Вид битрейта : Переменный
    Битрейт : 36,0 Мбит/сек
    Максимальный битрейт : 38,0 Мбит/сек
    Ширина : 1920 пикселей
    Высота : 1080 пикселей
    Соотношение сторон : 16:9
    Частота кадров : 23,976 кадра/сек
    Стандарт вещания : NTSC
    Цветовое пространство : YUV
    Субдискретизация насыщенности : 4:2:0
    Битовая глубина : 8 бит
    Тип развёртки : Прогрессивная
    Бит/(Пиксели*Кадры) : 0.724
    Размер потока : 27,4 Гбайт (90%)
    Заголовок : Much Ado About Nothing 2012 - NovaLan
    Default : Да
    Forced : Нет
    Основные цвета : BT.709-5, BT.1361, IEC 61966-2-4, SMPTE RP177
    Характеристики трансфера : BT.709-5, BT.1361
    Коэффициенты матрицы : BT.709-5, BT.1361, IEC 61966-2-4 709, SMPTE RP177

    Аудио #1
    Идентификатор : 2
    Формат : AC-3
    Формат/Информация : Audio Coding 3
    Расширение режима : CM (complete main)
    Параметр Endianness формата : Big
    Идентификатор кодека : A_AC3
    Продолжительность : 1 ч. 48 м.
    Вид битрейта : Постоянный
    Битрейт : 448 Кбит/сек
    Каналы : 6 каналов
    Расположение каналов : Front: L C R, Side: L R, LFE
    Частота : 48,0 КГц
    Битовая глубина : 16 бит
    Метод сжатия : С потерями
    Размер потока : 349 Мбайт (1%)
    Язык : Russian
    Default : Да
    Forced : Нет

    Аудио #2
    Идентификатор : 3
    Формат : AC-3
    Формат/Информация : Audio Coding 3
    Расширение режима : CM (complete main)
    Параметр Endianness формата : Big
    Идентификатор кодека : A_AC3
    Продолжительность : 1 ч. 48 м.
    Вид битрейта : Постоянный
    Битрейт : 640 Кбит/сек
    Каналы : 6 каналов
    Расположение каналов : Front: L C R, Side: L R, LFE
    Частота : 48,0 КГц
    Битовая глубина : 16 бит
    Метод сжатия : С потерями
    Размер потока : 498 Мбайт (2%)
    Язык : Russian
    Default : Нет
    Forced : Нет

    Аудио #3
    Идентификатор : 4
    Формат : DTS
    Формат/Информация : Digital Theater Systems
    Профиль формата : MA / Core
    Идентификатор кодека : A_DTS
    Продолжительность : 1 ч. 48 м.
    Вид битрейта : Переменный
    Битрейт : 1561 Кбит/сек / 1510 Кбит/сек
    Каналы : 6 каналов
    Расположение каналов : Front: L C R, Side: L R, LFE
    Частота : 48,0 КГц
    Битовая глубина : 24 бит
    Метод сжатия : Без потерь / Lossy
    Язык : English
    Default : Нет
    Forced : Нет

    Аудио #4
    Идентификатор : 5
    Формат : AC-3
    Формат/Информация : Audio Coding 3
    Расширение режима : C (commentary)
    Параметр Endianness формата : Big
    Идентификатор кодека : A_AC3
    Продолжительность : 1 ч. 48 м.
    Вид битрейта : Постоянный
    Битрейт : 192 Кбит/сек
    Каналы : 2 канала
    Расположение каналов : Front: L R
    Частота : 48,0 КГц
    Битовая глубина : 16 бит
    Метод сжатия : С потерями
    Размер потока : 150 Мбайт (0%)
    Язык : English
    Default : Нет
    Forced : Нет

    Аудио #5
    Идентификатор : 6
    Формат : AC-3
    Формат/Информация : Audio Coding 3
    Расширение режима : C (commentary)
    Параметр Endianness формата : Big
    Идентификатор кодека : A_AC3
    Продолжительность : 1 ч. 48 м.
    Вид битрейта : Постоянный
    Битрейт : 192 Кбит/сек
    Каналы : 2 канала
    Расположение каналов : Front: L R
    Частота : 48,0 КГц
    Битовая глубина : 16 бит
    Метод сжатия : С потерями
    Размер потока : 150 Мбайт (0%)
    Язык : English
    Default : Нет
    Forced : Нет

    Текст #1
    Идентификатор : 7
    Формат : PGS
    Режим смешивания : zlib
    Идентификатор кодека : S_HDMV/PGS
    Идентификатор кодека/Информация : The same subtitle format used on BDs/HD-DVDs
    Язык : Russian
    Default : Нет
    Forced : Нет

    Текст #2
    Идентификатор : 8
    Формат : PGS
    Режим смешивания : zlib
    Идентификатор кодека : S_HDMV/PGS
    Идентификатор кодека/Информация : The same subtitle format used on BDs/HD-DVDs
    Язык : English
    Default : Нет
    Forced : Нет

    Текст #3
    Идентификатор : 9
    Формат : PGS
    Режим смешивания : zlib
    Идентификатор кодека : S_HDMV/PGS
    Идентификатор кодека/Информация : The same subtitle format used on BDs/HD-DVDs
    Язык : English
    Default : Нет
    Forced : Нет

    Меню
    00:00:00.000 : en:Chapter 1
    00:06:36.604 : en:Chapter 2
    00:13:47.952 : en:Chapter 3
    00:19:00.305 : en:Chapter 4
    00:26:27.586 : en:Chapter 5
    00:32:24.901 : en:Chapter 6
    00:38:38.190 : en:Chapter 7
    00:44:45.015 : en:Chapter 8
    00:53:11.396 : en:Chapter 9
    00:58:50.068 : en:Chapter 10
    01:05:20.166 : en:Chapter 11
    01:13:13.347 : en:Chapter 12
    01:19:29.806 : en:Chapter 13
    01:23:51.609 : en:Chapter 14
    01:30:42.728 : en:Chapter 15
    01:45:00.711 : en:Chapter 16
    01:48:51.983 : en:Chapter 17


    За авторский перевод спасибо людям с клуба

    Релиз группа NovaLan
    Автор сборки Sergei7721






    Релиз подготовил:


    Залил: Sergei7721
    Размер скачиваемого торрента: 30.29 GB (32519149445 Bytes)

    Много шума из ничего / Much Ado About Nothing (2012) BDRemux 1080p от NovaLan торрент скачать бесплатно
    загрузка...
    Рейтинг →
     (голосов: 1, оценка 4/5, голосовать можно 1 раз )

    Другие торренты по теме:

  • Много шума из ничего / Much Ado About Nothing (2012) BDRip 720p от HDClub
  • Много шума из ничего / Much Ado About Nothing (2012) BDRip-AVC от HELLYWOOD | Д. Есарев скачать через торрент бесплатно
  • Много шума из ничего / Much Ado About Nothing (2012) HDRip скачать через торрент бесплатно
  • Много шума из ничего / Much Ado About Nothing (2012) BDRip-AVC от HELLYWOOD | P | Лицензия скачать через торрент бесплатно
  • Много шума из ничего (1956) DVDRip от New-Team
  • Много шума из ничего / 1973 / РУ / DVDRip
  • Много шума из ничего / 1973 / РУ / DVDRip (AVC)


    • Комментарии (0):

      Информация

      Информация

        Посетители, находящиеся в группе Гости, не могут оставлять комментарии в данной новости.

        ↓ Меню



        ↓ Опрос

        А Вы добавили сайт в закладки?
        Да
        Не


        Top 10 за месяц (Фильмы)