.
Авторизация | Регистрация
Хочешь лучшие торренты? Добавь свой email!
Добавить
» » Ультрафиолет / Ultraviolet (2006) BDRip | A | Theatrical version скачать торрент бесплатно




    Ультрафиолет / Ultraviolet (2006) BDRip | A | Theatrical version скачать торрент бесплатно

    Опубликовал: Админ | Дата: 27-02-2015, 11:10 | Просмотров: 165

    Детально о кино
    Русское название: Ультрафиолет
    Русское название в мировом прокате: Ultraviolet
    Создали в: 2006
    Категория жанра: фантастика, боевик
    Главный режиссер: Курт Уиммер
    Актеры: Милла Йовович, Камерон Брайт, Ник Чинланд, Себастьен Эндриё, Ида Мартин, Уильям Фихтнер, Дэвид Колье, Киран О’Рорк, Диггер Мещ, Райан Мартин

    Сюжет фильма:
    Конец XXI века. На Земле бушует ожесточенная война между обычными людьми и новым подвидом людей-вампиров. Непобедимый вирус, детище коварных спецслужб, способен в одночасье наделить любого человека невероятной силой, фантастической ловкостью и несравненным интеллектом. Однако за невероятные способности подопытные расплачиваются собственной жизнью. Жертвы глобальной эпидемии обречены на уничтожение, но бесстрашные повстанцы намерены бороться до конца. Среди них — отважная Вайолет. У нее есть всего 36 часов на то, чтобы выполнить свою последнюю миссию. Одна неуязвимая красавица против армии спецагентов в мире, стоящем на краю бездны — решающий элемент в смертельном противостоянии людей и суперменов!



    Official Site

    Снималось в: США
    Киностудия: Screen Gems, Ultravi Productions
    Время просмотра: 01:27:29
    Перевод текста: Авторский | Карповский Антон

    Доп. информация: за звуковую дорожку спасибо MrRose. Дорога с DVDScreener;а, качество хорошее.

    Файл
    Качество фильма: BDRip
    Информация о видео: XviD, 704x384 (1.85:1), 1920 Kbps, 23.976 fps
    Информация о звуке: AC-3, 48.0 kHz, 2 ch, 192 Kbps, CBR
    Субтитры: нет

    SAMPLE

    Релиз подготовил: kro44i

    MediaInfo
    Общее
    Полное имя : Ultraviolet.BDRip.Karpovskiy.avi
    Формат : AVI
    Формат/Информация : Audio Video Interleave
    Размер файла : 1,30 Гбайт
    Продолжительность : 1 ч. 27 м.
    Общий поток : 2121 Кбит/сек
    Программа кодирования : VirtualDubMod 1.5.4.1 (build 2178/release)
    Библиотека кодирования : VirtualDubMod build 2178/release

    Видео
    Идентификатор : 0
    Формат : MPEG-4 Visual
    Профиль формата : Advanced Simple@L5
    Параметр BVOP формата : 1
    Параметр QPel формата : Нет
    Параметр GMC формата : Без точки перехода
    Параметр матрицы формата : Выборочная
    Идентификатор кодека : XVID
    Идентификатор кодека/Подсказка : XviD
    Продолжительность : 1 ч. 27 м.
    Битрейт : 1920 Кбит/сек
    Ширина : 704 пикселя
    Высота : 384 пикселя
    Соотношение сторон : 1,85:1
    Частота кадров : 23,976 кадра/сек
    Цветовое пространство : YUV
    Субдискретизация насыщенности : 4:2:0
    Битовая глубина : 8 бит
    Тип развёртки : Прогрессивная
    Метод сжатия : С потерями
    Бит/(Пиксели*Кадры) : 0.296
    Размер потока : 1,17 Гбайт (91%)
    Библиотека кодирования : XviD 1.2.1 (UTC 2008-12-04)

    Аудио
    Идентификатор : 1
    Формат : AC-3
    Формат/Информация : Audio Coding 3
    Расширение режима : CM (complete main)
    Параметр Endianness формата : Big
    Идентификатор кодека : 2000
    Продолжительность : 1 ч. 27 м.
    Вид битрейта : Постоянный
    Битрейт : 192 Кбит/сек
    Каналы : 2 канала
    Расположение каналов : Front: L R
    Частота : 48,0 КГц
    Битовая глубина : 16 бит
    Метод сжатия : С потерями
    Размер потока : 120 Мбайт (9%)
    Выравнивание : Разделение по промежуткам
    Продолжительность промежутка : 42 мс. (1,00 видеокадр)
    Время предзагрузки промежутка : 500 мс.
    Скриншоты для ознакомления

    Размер скачиваемого торрента: 1.30 GB (1391898624 Bytes)

    Ультрафиолет / Ultraviolet (2006) BDRip | A | Theatrical version торрент скачать бесплатно
    загрузка...
    Рейтинг →
     (голосов: 1, оценка 4/5, голосовать можно 1 раз )

    Другие торренты по теме:

  • Ультрафиолет / Ultraviolet (2006) DVD5
  • Ультрафиолет / Ultraviolet (2006) HDRip | P2, A | UNRATED скачать через торрент бесплатно
  • Ультрафиолет / Ultraviolet (2006) BDRip-AVC ExKinoRay | D, P, A | Theatrical version скачать через торрент бесплатно


    • Комментарии (0):

      Информация

      Информация

        Посетители, находящиеся в группе Гости, не могут оставлять комментарии в данной новости.

        ↓ Меню



        ↓ Опрос

        А Вы добавили сайт в закладки?
        Да
        Не


        Top 10 за месяц (Фильмы)