.
Авторизация | Регистрация
Хочешь лучшие торренты? Добавь свой email!
Добавить
» » Мальчики-налетчики / Takers (2010) BDRip-AVC | D, A, L1 скачать торрент бесплатно




    Мальчики-налетчики / Takers (2010) BDRip-AVC | D, A, L1 скачать торрент бесплатно

    Опубликовал: Админ | Дата: 27-02-2015, 11:10 | Просмотров: 213

    Мальчики-налетчики / Takers (2010) BDRip


    Создали в: 2010
    Категория жанра: Боевик, Детектив, Триллер
    Создали в: США, Screen Gems, Rainforest Films, Grand Hustle Entertainment
    Время просмотра: 01:47:05
    Перевод текста: Дублированный, Авторский (одноголосый закадровый) А. Гаврилов, Любительский (одноголосый закадровый) М. Яроцкий (kyberpunk)
    Оригинальная звуковая дорожка: английский
    Субтитры: Русские, английские

    Главный режиссер: Джон Льюсенхоп.


    Актеры: Пол Уокер, Хейден Кристенсен, Мэтт Диллон, Зои Салдана, Марианн Жан-Баптист, Крис Браун, Майкл Или, Идрис Эльба, Стив Харрис, Ти Ай и др.

    Сюжет фильма:
    После серии блестяще спланированных ограблений банков команда взломщиков-профи, известных на всю Калифорнию, решается пойти на последнее, самое прибыльное дело. Такой шанс просто нельзя упустить, ведь на кону 25 миллионов долларов. Вот только есть один упертый полицейский, который готов на все, чтобы уничтожить банду мальчиков-налетчиков…



    Дата мировой премьеры: 4 августа 2010
    Дата российской премьеры: 4 ноября 2010, WDSSPR
    Дата выхода DVD релиза: 2 декабря 2010, Columbia/Sony

    Качество фильма видео: BDRip-AVC
    Информация о видео: MPEG-4 AVC/H.264, 1056x440 (2.40:1), ~2152 kbps
    Информация о звуке 1: AC3, 48.0 KHz, 6 ch., 448 kbps - Дублированный
    Информация о звуке 2: AC3, 48.0 KHz, 6 ch., 448 kbps - А.Гаврилов
    Информация о звуке 3: AC3, 48.0 KHz, 6 ch., 448 kbps - М. Яроцкий
    Информация о звуке 4: АAC, 48.0 KHz, 6 ch., 272 Kbps - Оригинал

    MediaInfo
    Формат : Matroska
    Версия формата : Version 4 / Version 2
    Размер файла : 2,82 Гбайт
    Продолжительность : 1 ч. 47 м.
    Общий поток : 3764 Кбит/сек
    Дата кодирования : UTC 2014-03-13 12:11:00
    Программа кодирования : mkvmerge v6.8.0 (;Theme for Great Cities;) 32bit built on Mar 2 2014 21:27:07
    Библиотека кодирования : libebml v1.3.0 libmatroska v1.4.1
    Attachment : Yes

    Видео
    Идентификатор : 1
    Формат : AVC
    Формат/Информация : Advanced Video Codec
    Профиль формата : High@L4.1
    Параметр CABAC формата : Да
    Параметр ReFrames формата : 9 кадров
    Идентификатор кодека : V_MPEG4/ISO/AVC
    Продолжительность : 1 ч. 47 м.
    Номинальный битрейт : 2152 Кбит/сек
    Ширина : 1056 пикселей
    Высота : 440 пикселей
    Соотношение сторон : 2,40:1
    Режим частоты кадров : Постоянный
    Частота кадров : 23,976 кадра/сек
    Цветовое пространство : YUV
    Субдискретизация насыщенности : 4:2:0
    Битовая глубина : 8 бит
    Тип развёртки : Прогрессивная
    Бит/(Пиксели*Кадры) : 0.193
    Библиотека кодирования : x264 core 115 r1995 c1e60b9
    Настройки программы : cabac=1 / ref=9 / deblock=1:-1:-1 / analyse=0x3:0x113 / me=umh / subme=10 / psy=1 / psy_rd=1.05:0.00 / mixed_ref=1 / me_range=32 / chroma_me=1 / trellis=2 / 8x8dct=1 / cqm=0 / deadzone=21,11 / fast_pskip=0 / chroma_qp_offset=-2 / threads=6 / sliced_threads=0 / nr=0 / decimate=1 / interlaced=0 / bluray_compat=0 / constrained_intra=0 / bframes=9 / b_pyramid=2 / b_adapt=2 / b_bias=0 / direct=3 / weightb=1 / open_gop=0 / weightp=2 / keyint=250 / keyint_min=23 / scenecut=40 / intra_refresh=0 / rc=2pass / mbtree=0 / bitrate=2152 / ratetol=1.0 / qcomp=0.60 / qpmin=0 / qpmax=69 / qpstep=4 / cplxblur=20.0 / qblur=0.5 / ip_ratio=1.40 / pb_ratio=1.30 / aq=1:0.90 / zones=146668,154047,q=35
    Язык : English
    Default : Да
    Forced : Нет

    Аудио #1
    Идентификатор : 2
    Формат : AC-3
    Формат/Информация : Audio Coding 3
    Расширение режима : CM (complete main)
    Параметр Endianness формата : Big
    Идентификатор кодека : A_AC3
    Продолжительность : 1 ч. 47 м.
    Вид битрейта : Постоянный
    Битрейт : 448 Кбит/сек
    Каналы : 6 каналов
    Расположение каналов : Front: L C R, Side: L R, LFE
    Частота : 48,0 КГц
    Битовая глубина : 16 бит
    Метод сжатия : С потерями
    Размер потока : 343 Мбайт (12%)
    Заголовок : Дубляж
    Язык : Russian
    Default : Нет
    Forced : Нет

    Аудио #2
    Идентификатор : 3
    Формат : AC-3
    Формат/Информация : Audio Coding 3
    Расширение режима : CM (complete main)
    Параметр Endianness формата : Big
    Идентификатор кодека : A_AC3
    Продолжительность : 1 ч. 47 м.
    Вид битрейта : Постоянный
    Битрейт : 448 Кбит/сек
    Каналы : 6 каналов
    Расположение каналов : Front: L C R, Side: L R, LFE
    Частота : 48,0 КГц
    Битовая глубина : 16 бит
    Метод сжатия : С потерями
    Размер потока : 343 Мбайт (12%)
    Заголовок : А.Гаврилов
    Язык : Russian
    Default : Нет
    Forced : Нет

    Аудио #3
    Идентификатор : 4
    Формат : AC-3
    Формат/Информация : Audio Coding 3
    Расширение режима : CM (complete main)
    Параметр Endianness формата : Big
    Идентификатор кодека : A_AC3
    Продолжительность : 1 ч. 47 м.
    Вид битрейта : Постоянный
    Битрейт : 448 Кбит/сек
    Каналы : 6 каналов
    Расположение каналов : Front: L C R, Side: L R, LFE
    Частота : 48,0 КГц
    Битовая глубина : 16 бит
    Метод сжатия : С потерями
    Размер потока : 343 Мбайт (12%)
    Заголовок : Яроцкий
    Язык : Russian
    Default : Да
    Forced : Нет

    Аудио #4
    Идентификатор : 5
    Формат : AAC
    Формат/Информация : Advanced Audio Codec
    Профиль формата : LC
    Идентификатор кодека : A_AAC
    Продолжительность : 1 ч. 47 м.
    Каналы : 6 каналов
    Расположение каналов : Front: L C R, Side: L R, LFE
    Частота : 48,0 КГц
    Метод сжатия : С потерями
    Заголовок : Оригинал
    Язык : English
    Default : Нет
    Forced : Нет

    Текст #1
    Идентификатор : 6
    Формат : UTF-8
    Идентификатор кодека : S_TEXT/UTF8
    Идентификатор кодека/Информация : UTF-8 Plain Text
    Язык : English
    Default : Да
    Forced : Нет

    Текст #2
    Идентификатор : 7
    Формат : UTF-8
    Идентификатор кодека : S_TEXT/UTF8
    Идентификатор кодека/Информация : UTF-8 Plain Text
    Язык : Russian
    Default : Нет
    Forced : Нет


    Скриншоты для ознакомления:

    Размер скачиваемого торрента: 2.82 GB (3022820724 Bytes)

    Мальчики-налетчики / Takers (2010) BDRip-AVC | D, A, L1 торрент скачать бесплатно
    загрузка...
    Рейтинг →
     (голосов: 1, оценка 3/5, голосовать можно 1 раз )

    Другие торренты по теме:

  • Мальчики-налетчики / Takers (2010) DVD9 от Youtracker | D | Польская лицензия
  • Мальчики-налетчики / Takers (2010) HDRip-AVC | D
  • Мальчики-налетчики / Takers (2010) BDRip 1080p от denis 100 скачать через торрент бесплатно
  • Мальчики-налетчики / Takers (2010) BDRip 720p | D, A скачать через торрент бесплатно
  • Мальчики-налетчики / Takers (2010) BDRip 1080p | D, A скачать через торрент бесплатно
  • Мальчики-налетчики / Takers (2010) BDRip-AVC от ExKinoRay | D
  • Мальчики-налетчики / Takers / 2010 / ДБ, СТ / Blu-Ray CEE (1080p)


    • Комментарии (0):

      Информация

      Информация

        Посетители, находящиеся в группе Гости, не могут оставлять комментарии в данной новости.

        ↓ Меню



        ↓ Опрос

        А Вы добавили сайт в закладки?
        Да
        Не


        Top 10 за месяц (Фильмы)