.
Авторизация | Регистрация
Хочешь лучшие торренты? Добавь свой email!
Добавить
» » Эксперимент Ганцфельда / The Ganzfeld Haunting (2014) WEB-DL 720p от CINEMANIA | L1 скачать торрент бесплатно




    Эксперимент Ганцфельда / The Ganzfeld Haunting (2014) WEB-DL 720p от CINEMANIA | L1 скачать торрент бесплатно

    Опубликовал: Админ | Дата: 27-02-2015, 11:10 | Просмотров: 242



    Детально о кино
    Русское название: Эксперимент Ганцфельда
    Русское название в мировом прокате: The Ganzfeld Haunting
    Создали в: 2014
    Категория жанра: ужасы, триллер
    Главный режиссер: Майкл Обловитц
    Актеры: Дианна Камачо, Тейлор Коул, Райан Доноху, Кимберли Эстрада, Микайла Фигуроа, Тоби Хемингуэй, Коуди Хауэлл, Холт МакКэллани, Доминик Пёрселл, Рико Симонини

    Сюжет фильма:
    Четверо ребят-студентов уезжают в загородный заброшенный особняк, чтобы провести в нем выходные и поставить опасный эксперимент Ганцфельда, который, по сути, является тестом на выявление паранормальных способностей... Поначалу поездка выглядит как увлекательное приключение. Ребята привозят с собой в большой двухэтажный дом огромное количество видео и звукозаписывающей аппаратуры, чтобы отследить каждое свое действие и все происходящие во время эксперимента события. Также они запасаются наркотиками и алкоголем, чтобы как следует подогреть свой разум во время опыта. Но в самый разгар опыта в доме начинают происходить странные вещи… Со временем герои понимают, что они в этом доме явно не одни, и здесь их ждет нечто ужасное. Удастся ли молодым психологам разобраться в происходящем и вырваться из страшного особняка до того, как в нем произойдут жуткие события, которые уже невозможно будет исправить?



    Снималось в: США
    Время просмотра: 01:26:04
    Тип перевода: Любительское (одноголосое) ХихиДок

    Файл
    Тип видео: MKV
    Качество фильма: WEB-DL 720p WEBiOS
    Информация о видео: 3673 kb/s, 1280x544
    Информация о звуке: Russian: AC3, 192 kb/s (2 ch) / English: AC3, 384 kb/s (6 ch)
    Субтитры: Spanish
    Дополнительно: Сохранены оригинальные чаптеры как на Blu-Ray
    Размер скачиваемого торрента: 2.61 GB
    Скачать: Сэмпл

    Релиз группы:




    NFO
    Общее
    The.Ganzfeld.Haunting.2014.WEB.DL.720p.CINEMANIA.mkv
    Формат : Matroska
    Версия формата : Version 4 / Version 2
    Размер файла : 2,61 Гбайт
    Продолжительность : 1 ч. 26 м.
    Общий поток : 4335 Кбит/сек
    Название фильма : Release Group CINEMANIA
    Дата кодирования : UTC 2014-03-13 14:02:15
    Программа кодирования : mkvmerge v6.8.0 (;Theme for Great Cities;) 64bit built on Mar 2 2014 21:34:26
    Библиотека кодирования : libebml v1.3.0 libmatroska v1.4.1

    Видео
    Идентификатор : 1
    Формат : AVC
    Формат/Информация : Advanced Video Codec
    Профиль формата : Main@L3.1
    Параметр CABAC формата : Нет
    Параметр ReFrames формата : 2 кадра
    Идентификатор кодека : V_MPEG4/ISO/AVC
    Продолжительность : 1 ч. 26 м.
    Битрейт : 3673 Кбит/сек
    Ширина : 1280 пикселей
    Высота : 544 пикселя
    Соотношение сторон : 2,35:1
    Режим частоты кадров : Постоянный
    Частота кадров : 23,976 кадра/сек
    Цветовое пространство : YUV
    Субдискретизация насыщенности : 4:2:0
    Битовая глубина : 8 бит
    Тип развёртки : Прогрессивная
    Бит/(Пиксели*Кадры) : 0.220
    Размер потока : 2,21 Гбайт (85%)
    Заголовок : Release Group CINEMANIA
    Язык : English
    Default : Да
    Forced : Нет
    Основные цвета : BT.709
    Характеристики трансфера : BT.709
    Коэффициенты матрицы : BT.709

    Аудио #1
    Идентификатор : 2
    Формат : AC-3
    Формат/Информация : Audio Coding 3
    Расширение режима : CM (complete main)
    Параметр Endianness формата : Big
    Идентификатор кодека : A_AC3
    Продолжительность : 1 ч. 26 м.
    Вид битрейта : Постоянный
    Битрейт : 192 Кбит/сек
    Каналы : 2 канала
    Расположение каналов : Front: L R
    Частота : 44,1 КГц
    Битовая глубина : 16 бит
    Метод сжатия : С потерями
    Размер потока : 118 Мбайт (4%)
    Заголовок : ХиХиДок
    Язык : Russian
    Default : Нет
    Forced : Нет

    Аудио #2
    Идентификатор : 3
    Формат : AC-3
    Формат/Информация : Audio Coding 3
    Расширение режима : CM (complete main)
    Параметр Endianness формата : Big
    Идентификатор кодека : A_AC3
    Продолжительность : 1 ч. 26 м.
    Вид битрейта : Постоянный
    Битрейт : 384 Кбит/сек
    Каналы : 6 каналов
    Расположение каналов : Front: L C R, Side: L R, LFE
    Частота : 48,0 КГц
    Битовая глубина : 16 бит
    Метод сжатия : С потерями
    Размер потока : 236 Мбайт (9%)
    Язык : English
    Default : Нет
    Forced : Нет

    Текст
    Идентификатор : 4
    Формат : UTF-8
    Идентификатор кодека : S_TEXT/UTF8
    Идентификатор кодека/Информация : UTF-8 Plain Text
    Язык : Spanish
    Default : Нет
    Forced : Нет

    Меню
    00:00:00.000 : en:These Are the Events
    00:09:37.000 : en:It;s Freezing In Here
    00:17:29.000 : en:Bad Trip?
    00:26:34.000 : en:Magic and Drugs
    00:37:58.000 : en:Getting Hot In Here
    00:44:44.000 : en:Someone Is Here
    00:55:41.000 : en:Sister
    01:01:42.000 : en:Try Experiment Again
    01:10:35.000 : en:Time For My Revenge
    01:21:19.000 : en:Credits

    Залил: DGEKIGAN
    Размер скачиваемого торрента: 2.61 GB (2798781278 Bytes)

    Эксперимент Ганцфельда / The Ganzfeld Haunting (2014) WEB-DL 720p от CINEMANIA | L1 торрент скачать бесплатно
    загрузка...
    Рейтинг →
     (голосов: 1, оценка 3/5, голосовать можно 1 раз )

    Другие торренты по теме:

  • Эксперимент Ганцфельда / The Ganzfeld Haunting (2014) WEB-DLRip | L1
  • Эксперимент Ганцфельда / The Ganzfeld Haunting (2014) WEB-DLRip-AVC | L1 скачать через торрент бесплатно


    • Комментарии (0):

      Информация

      Информация

        Посетители, находящиеся в группе Гости, не могут оставлять комментарии в данной новости.

        ↓ Меню



        ↓ Опрос

        А Вы добавили сайт в закладки?
        Да
        Не


        Top 10 за месяц (Фильмы)