.
Авторизация | Регистрация
Хочешь лучшие торренты? Добавь свой email!
Добавить
» » Человек дождя / Rain Man (1988) BDRip-AVC | iPhone | D,P скачать через торрент бесплатно




    Человек дождя / Rain Man (1988) BDRip-AVC | iPhone | D,P скачать через торрент бесплатно

    Опубликовал: Админ | Дата: 27-02-2015, 11:10 | Просмотров: 237



    Человек дождя / Rain Man (1988) BDRip-AVC | iPhone | D,P

    Русское название: Человек дождя
    Русское название в мировом прокате: Rain Man
    Создали в: 1988
    Категория жанра: драма
    Главный режиссер: Барри Левинсон
    Актеры: Дастин Хоффман, Том Круз, Валерия Голино, Джералд Р. Молен, Джек Мёрдок, Майкл Д. Робертс, Ральф Сеймур, Люсинда Дженни, Бонни Хант, Ким Робиллард

    Сюжет фильма:
    У Чарли, грубоватого и эгоистичного молодого повесы, в наследство от отца остались лишь розовые кусты да Бьюик 49-го года. Внезапным сюрпризом для него стало открытие того, что львиная доля наследства оставлена отцом его больному аутизмом брату Раймонду. Задавшись целью отобрать свою справедливую долю семейного достояния, Чарли похищает старшего брата и держит его заложником. Но то, что было задумано им из эгоизма, перерастает в волшебную одиссею дружбы и самоосмысления, которая разводит границы обособленного мира Раймонда, а Чарли позволяет вырваться из оков своей некогда бесчувственной души.



    Снималось в: США
    Киностудия: MGM
    Время просмотра: 02:13:50
    Перевод текста: Русский дублированный, профессиональный многоголосый закадровый

    Файл
    Кодек для видео: H.264
    Качество фильма: BDRip-AVC 480p
    Информация о видео: 640x460@851x460 (1.85:1) at 23.976 fps, AVC at 1800 kbps
    Информация о звуке:
    1: АС3 2.0 129 kbps - Русский дублированный (Варус-Видео)
    2: АС3 2.0 129 kbps - Русский профессиональный многоголосый закадровый (Blu-ray CEE)
    3: АС3 2.0 129 kbps - Английский
    Субтитры: Русские, Английские

    MI

    General
    Complete name : C:CREATE480outRain Man.1988 (SD).m4v
    Format : MPEG-4
    Codec ID : M4V
    File size : 2.01 GiB
    Duration : 2h 13mn
    Overall bit rate mode : Variable
    Overall bit rate : 2 155 Kbps
    Movie name : Человек дождя
    Performer : Barry Levinson
    Genre : Drama
    Recorded date : UTC 1988-12-16 08:00:00
    Encoded date : UTC 2014-03-11 17:58:42
    Tagged date : UTC 2014-03-12 09:33:24
    Copyright : © 1988 METRO-GOLDWYN-MAYER STUDIOS INC.
    Cover : Yes
    sonm : Rain Man
    desc : У Чарли, грубоватого и эгоистичного молодого повесы, в наследство от отца остались лишь розовые кусты да Бьюик 49-го года. Внезапным сюрпризом для него стало открытие того, что львиная доля наследства оставлена отцом его больному аутизмом брату.
    ldes : У Чарли, грубоватого и эгоистичного молодого повесы, в наследство от отца остались лишь розовые кусты да Бьюик 49-го года. Внезапным сюрпризом для него стало открытие того, что львиная доля наследства оставлена отцом его больному аутизмом брату Раймонду. Задавшись целью отобрать свою справедливую долю семейного достояния, Чарли похищает старшего брата и держит его заложником. Но то, что было задумано им из эгоизма, перерастает в волшебную одиссею дружбы и самоосмысления, которая разводит границы обособленного мира Раймонда, а Чарли позволяет вырваться из оков своей некогда бесчувственной души.
    stik : 9
    rtng : 0
    cnID : 303821283
    xid : Apple:vendor_id:1988-519
    iTunEXTC : mpaa|R|400|

    Video #1
    ID : 1
    Format : AVC
    Format/Info : Advanced Video Codec
    Format profile : Baseline@L3.0
    Format settings, CABAC : No
    Format settings, ReFrames : 2 frames
    Codec ID : avc1
    Codec ID/Info : Advanced Video Coding
    Duration : 2h 13mn
    Bit rate : 1 800 Kbps
    Maximum bit rate : 7 667 Kbps
    Width : 640 pixels
    Height : 460 pixels
    Display aspect ratio : 1.85:1
    Frame rate mode : Constant
    Frame rate : 23.976 fps
    Color space : YUV
    Chroma subsampling : 4:2:0
    Bit depth : 8 bits
    Scan type : Progressive
    Bits/(Pixel*Frame) : 0.255
    Stream size : 1.68 GiB (83%)
    Title : Rain Man _1988_
    Writing library : x264 core 140 r2377 40 929f149 tMod 8-bit@4:2:0 X86_64
    Encoding settings : cabac=0 / ref=2 / deblock=1:-2:-2 / analyse=0x1:0x131 / me=umh / subme=7 / psy=1 / fade_compensate=1.00 / psy_rd=1.00:0.15 / mixed_ref=1 / me_range=32 / chroma_me=1 / trellis=2 / 8x8dct=0 / cqm=0 / deadzone=21,11 / fast_pskip=0 / chroma_qp_offset=-3 / threads=12 / lookahead_threads=2 / sliced_threads=0 / nr=0 / decimate=0 / interlaced=0 / bluray_compat=0 / constrained_intra=0 / fgo=0 / bframes=0 / weightp=0 / keyint=250 / keyint_min=23 / scenecut=40 / intra_refresh=0 / rc_lookahead=96 / rc=2pass / mbtree=1 / bitrate=1800 / ratetol=1.0 / qcomp=0.70 / qpmin=0:0:0 / qpmax=69:69:69 / qpstep=4 / cplxblur=20.0 / qblur=0.5 / vbv_maxrate=5000 / vbv_bufsize=5000 / nal_hrd=none / filler=0 / ip_ratio=1.35 / aq=4:0.90 / aq-sensitivity=10.00 / aq-factor=1.00:1.00:1.00 / aq2=0 / aq3=0
    Language : English
    Encoded date : UTC 2014-03-11 17:58:42
    Tagged date : UTC 2014-03-11 17:59:16
    Matrix coefficients : BT.709

    Video #2
    ID : 8
    Format : JPEG
    Codec ID : jpeg
    Duration : 2h 13mn
    Bit rate mode : Variable
    Bit rate : 1 750 bps
    Width : 640 pixels
    Height : 345 pixels
    Display aspect ratio : 1.85:1
    Frame rate mode : Variable
    Frame rate : 0.004 fps
    Minimum frame rate : 0.002 fps
    Maximum frame rate : 0.007 fps
    Color space : YUV
    Chroma subsampling : 4:2:0
    Bit depth : 8 bits
    Compression mode : Lossy
    Bits/(Pixel*Frame) : 1.981
    Stream size : 1.67 MiB (0%)
    Language : English
    Encoded date : UTC 2014-03-12 09:33:19
    Tagged date : UTC 2014-03-12 09:33:19

    Audio #1
    ID : 2
    Format : AAC
    Format/Info : Advanced Audio Codec
    Format profile : LC
    Codec ID : 40
    Duration : 2h 13mn
    Bit rate mode : Variable
    Bit rate : 98.9 Kbps
    Maximum bit rate : 118 Kbps
    Channel(s) : 2 channels
    Channel positions : Front: L R
    Sampling rate : 48.0 KHz
    Compression mode : Lossy
    Stream size : 94.7 MiB (5%)
    Title : Dub Varus_Video
    Language : Russian
    Encoded date : UTC 2014-03-11 17:52:03
    Tagged date : UTC 2014-03-11 17:59:16

    Audio #2
    ID : 3
    Format : AAC
    Format/Info : Advanced Audio Codec
    Format profile : LC
    Codec ID : 40
    Duration : 2h 13mn
    Bit rate mode : Variable
    Bit rate : 118 Kbps
    Maximum bit rate : 171 Kbps
    Channel(s) : 2 channels
    Channel positions : Front: L R
    Sampling rate : 48.0 KHz
    Compression mode : Lossy
    Stream size : 113 MiB (5%)
    Title : MVO Blu_ray CEE
    Language : Russian
    Encoded date : UTC 2014-03-11 17:54:00
    Tagged date : UTC 2014-03-11 17:59:16

    Audio #3
    ID : 4
    Format : AAC
    Format/Info : Advanced Audio Codec
    Format profile : LC
    Codec ID : 40
    Duration : 2h 13mn
    Bit rate mode : Variable
    Bit rate : 128 Kbps
    Maximum bit rate : 176 Kbps
    Channel(s) : 2 channels
    Channel positions : Front: L R
    Sampling rate : 48.0 KHz
    Compression mode : Lossy
    Stream size : 123 MiB (6%)
    Title : Original
    Language : English
    Encoded date : UTC 2014-03-11 17:56:17
    Tagged date : UTC 2014-03-11 17:59:16

    Text #1
    ID : 5
    Format : Timed Text
    Muxing mode : sbtl
    Codec ID : tx3g
    Duration : 2h 9mn
    Bit rate mode : Variable
    Bit rate : 136 bps
    Stream size : 129 KiB (0%)
    Title : Subtitle Russian
    Language : Russian
    Encoded date : UTC 2014-03-11 17:59:16
    Tagged date : UTC 2014-03-11 17:59:16

    Text #2
    ID : 6
    Format : Timed Text
    Muxing mode : sbtl
    Codec ID : tx3g
    Duration : 1mn 1s
    Duration_FirstFrame : 55s 666ms
    Bit rate mode : Variable
    Bit rate : 1 bps
    Stream size : 5.00 Bytes (0%)
    Title : Subtitle English
    Language : English
    Encoded date : UTC 2014-03-11 17:59:16
    Tagged date : UTC 2014-03-11 17:59:16

    Menu
    ID : 7
    Codec ID : text
    Duration : 2h 13mn
    Language : English
    Encoded date : UTC 2014-03-11 18:00:33
    Tagged date : UTC 2014-03-11 18:00:33
    Bit rate mode : CBR
    iTunes tags

    Sort Name: Rain Man
    XID: Apple:vendor_id:1988-519
    contentID: 303821283
    Copyright: © 1988 METRO-GOLDWYN-MAYER STUDIOS INC.
    Screenwriters: Бэрри Морроу, Роналд Бэсс
    Producers: Марк Джонсон, Питер Губер, Дэвид МакГифферт
    Director: Барри Левинсон
    Cast: Дастин Хоффман, Том Круз, Валерия Голино, Джералд Р. Молен, Джек Мёрдок, Майкл Д. Робертс, Ральф Сеймур, Люсинда Дженни, Бонни Хант, Ким Робиллард
    Studio: MGM
    Rating: 5
    Long Deion: У Чарли, грубоватого и эгоистичного молодого повесы, в наследство от отца остались лишь розовые кусты да Бьюик 49-го года. Внезапным сюрпризом для него стало открытие того, что львиная доля наследства оставлена отцом его больному аутизмом брату Раймонду. Задавшись целью отобрать свою справедливую долю семейного достояния, Чарли похищает старшего брата и держит его заложником. Но то, что было задумано им из эгоизма, перерастает в волшебную одиссею дружбы и самоосмысления, которая разводит границы обособленного мира Раймонда, а Чарли позволяет вырваться из оков своей некогда бесчувственной души.
    Deion: У Чарли, грубоватого и эгоистичного молодого повесы, в наследство от отца остались лишь розовые кусты да Бьюик 49-го года. Внезапным сюрпризом для него стало открытие того, что львиная доля наследства оставлена отцом его больному аутизмом брату.
    Release Date: 1988-12-16T08:00:00Z
    Genre: Drama
    Artist: Barry Levinson
    Name: Человек дождя
    x264

    x264 info: frame I:2612 Avg QP:19.96 size: 24726
    x264 info: frame P:189921 Avg QP:22.01 size: 9156
    x264 info: mb I I16..4: 40.3% 0.0% 59.7%
    x264 info: mb P I16..4: 1.5% 0.0% 1.0% P16..4: 56.1% 16.7% 9.3% 1.0% 0.5% skip:13.9%
    x264 info: coded y,uvDC,uvAC intra: 53.5% 62.4% 23.3% inter: 40.0% 33.8% 5.7%
    x264 info: i16 v,h,dc,p: 47% 14% 13% 25%
    x264 info: i4 v,h,dc,ddl,ddr,vr,hd,vl,hu: 24% 15% 22% 7% 7% 8% 7% 6% 4%
    x264 info: i8c dc,h,v,p: 62% 14% 19% 5%
    x264 info: ref P L0: 71.7% 28.3%
    x264 info: kb/s:1796.77




    Залил: gekka
    Размер скачиваемого торрента: 2.01 GB (2162986248 Bytes)

    Человек дождя / Rain Man (1988) BDRip-AVC | iPhone | D,P скачать через торрент бесплатно
    загрузка...
    Рейтинг →
     (голосов: 1, оценка 3/5, голосовать можно 1 раз )

    Другие торренты по теме:

  • Человек дождя / Rain Man (1988) BDRip-AVC от Valegorov
  • OST - Человек дождя / Rain Man (1988) MP3
  • Человек дождя / Rain Man (1988) BDRip 720p от HQ-ViDEO
  • Человек дождя / Rain Man (1988) BDRip от R. G. Jolly Roger | D
  • Человек дождя / Rain Man (1988) BDRip 720p | D, P
  • Человек дождя / Rain Man (1988) BDRip-AVC от Leonardo and Scarabey скачать через торрент бесплатно
  • Человек дождя / Rain Man (1988) BDRip 720p от Leonardo and Scarabey | D, P | Лицензия скачать через торрент бесплатно
  • Человек дождя / Rain Man (1988) HDRip от Scarabey | P скачать через торрент бесплатно


    • Комментарии (0):

      Информация

      Информация

        Посетители, находящиеся в группе Гости, не могут оставлять комментарии в данной новости.

        ↓ Меню



        ↓ Опрос

        А Вы добавили сайт в закладки?
        Да
        Не


        Top 10 за месяц (Фильмы)