.
Авторизация | Регистрация
Хочешь лучшие торренты? Добавь свой email!
Добавить
» » Без лица / Face Off (1997) DVD9 | D скачать через торрент бесплатно




    Без лица / Face Off (1997) DVD9 | D скачать через торрент бесплатно

    Опубликовал: Админ | Дата: 27-02-2015, 11:10 | Просмотров: 281



    Детально о кино
    Русское название: Без лица
    Русское название в мировом прокате: Face/Off
    Создали в: 1997
    Категория жанра: фантастика, боевик, триллер, криминал
    Главный режиссер: Джон Ву
    Актеры: Джон Траволта, Николас Кейдж, Джоан Аллен, Алессандро Нивола, Джина Гершон, Доминик Суэйн, Ник Кассаветис, Харви Преснелл, Колм Фиор, Джон Кэрролл Линч

    Сюжет фильма:
    Чтобы отомстить за жестокое убийство своего сына, агент ФБР Шон Арчер соглашается на сложную хирургическую операцию. Он берет себе новое лицо, лицо террориста Кастора Троя, который находится в коме.

    Однако происходит непредвиденное: Трой приходит в себя и исчезает в обличье Арчера. Жизнь Шона превращается в настоящий кошмар — ему приходится сражаться не только за свою жизнь, но и за жизнь своей жены и дочери.




    Снималось в: США
    Киностудия: Paramount Pictures, Touchstone Pictures
    Время просмотра: 138 мин. / 02:18
    Перевод текста: полное дублирование

    Файл
    Кодек для видео: MPEG2
    Качество фильма: DVD9
    Информация о видео: PAL 16:9 (720x576) VBR 5069 Kbps, 25.000 fps
    Информация о звуке 1: Dolby AC3, 2 ch, 48.0 KHz, 192 Kbps русский
    Информация о звуке 2: Dolby AC3, 6 ch, 48.0 KHz, 384 Kbps английский
    Информация о звуке 3: DTS 6 ch, 48.0 KHz, 755 Kbps русский
    Субтитры: английские, французские

    MediaInfo
    General
    Complete name : E:Bez.lica.1997.DVD-9VIDEO_TSVTS_02_1.VOB
    Format : MPEG-PS
    File size : 1 024 MiB
    Duration : 21mn 55s
    Overall bit rate mode : Variable
    Overall bit rate : 6 529 Kbps

    Video
    ID : 224 (0xE0)
    Format : MPEG Video
    Format version : Version 2
    Format profile : Main@Main
    Format settings, BVOP : No
    Format settings, Matrix : Custom
    Format settings, GOP : M=3, N=12
    Duration : 21mn 55s
    Bit rate mode : Variable
    Bit rate : 5 069 Kbps
    Maximum bit rate : 7 000 Kbps
    Width : 720 pixels
    Height : 576 pixels
    Display aspect ratio : 16:9
    Frame rate : 25.000 fps
    Standard : PAL
    Color space : YUV
    Chroma subsampling : 4:2:0
    Bit depth : 8 bits
    Scan type : Interlaced
    Scan order : Top Field First
    Compression mode : Lossy
    Bits/(Pixel*Frame) : 0.489
    Time code of first frame : 01:00:00:00
    Time code source : Group of pictures t_head
    Stream size : 795 MiB (78%)

    Audio #1
    ID : 189 (0xBD)-129 (0x81)
    Format : AC-3
    Format/Info : Audio Coding 3
    Format profile : Dolby Digital
    Mode extension : CM (complete main)
    Format settings, Endianness : Big
    Muxing mode : DVD-Video
    Duration : 21mn 55s
    Bit rate mode : Constant
    Bit rate : 192 Kbps
    Channel(s) : 2 channels
    Channel positions : Front: L R
    Sampling rate : 48.0 KHz
    Bit depth : 16 bits
    Compression mode : Lossy
    Stream size : 30.1 MiB (3%)

    Audio #2
    ID : 189 (0xBD)-130 (0x82)
    Format : AC-3
    Format/Info : Audio Coding 3
    Mode extension : CM (complete main)
    Format settings, Endianness : Big
    Muxing mode : DVD-Video
    Duration : 21mn 55s
    Bit rate mode : Constant
    Bit rate : 384 Kbps
    Channel(s) : 6 channels
    Channel positions : Front: L C R, Side: L R, LFE
    Sampling rate : 48.0 KHz
    Bit depth : 16 bits
    Compression mode : Lossy
    Stream size : 60.2 MiB (6%)

    Audio #3
    ID : 189 (0xBD)-136 (0x88)
    Format : DTS
    Format/Info : Digital Theater Systems
    Mode : 16
    Format settings, Endianness : Big
    Muxing mode : DVD-Video
    Duration : 21mn 55s
    Bit rate mode : Constant
    Bit rate : 755 Kbps
    Channel(s) : 6 channels
    Channel positions : Front: L C R, Side: L R, LFE
    Sampling rate : 48.0 KHz
    Bit depth : 24 bits
    Compression mode : Lossy
    Stream size : 118 MiB (12%)

    Text #1
    ID : 189 (0xBD)-32 (0x20)
    Format : RLE
    Format/Info : Run-length encoding
    Muxing mode : DVD-Video

    Text #2
    ID : 189 (0xBD)-33 (0x21)
    Format : RLE
    Format/Info : Run-length encoding
    Muxing mode : DVD-Video

    Menu

    Скриншоты для ознакомления

    Залил: carisha
    Размер скачиваемого торрента: 6.30 GB (6765703168 Bytes)

    Без лица / Face Off (1997) DVD9 | D скачать через торрент бесплатно
    загрузка...
    Рейтинг →
     (голосов: 1, оценка 5/5, голосовать можно 1 раз )

    Другие торренты по теме:

  • Без лица / Face / Off (1997) BD-Remux
  • Без лица / Face / Off (1997) BDRip 720p от leonardo 59 Scarabey | Лицензия
  • Человек без лица / The Man without a Face (1993) BDRemux | P, A скачать через торрент бесплатно
  • Человек без лица / The Man without a Face (1993) BDRip-AVC | P, A
  • Человек без лица / The Man without a Face (1993) BDRip-AVC | P скачать через торрент бесплатно
  • Человек без лица / The Man Without a Face (1993) BDRip 1080p | Р, A
  • Без лица / Face Off (1997) BDRip 720p скачать через торрент бесплатно
  • Человек без лица


    • Комментарии (0):

      Информация

      Информация

        Посетители, находящиеся в группе Гости, не могут оставлять комментарии в данной новости.

        ↓ Меню



        ↓ Опрос

        А Вы добавили сайт в закладки?
        Да
        Не


        Top 10 за месяц (Фильмы)