.
Авторизация | Регистрация
Хочешь лучшие торренты? Добавь свой email!
Добавить
» » Спасти рядового Райана / Saving Private Ryan (1998) BDRip-AVC | iPhone | D скачать через торрент бесплатно




    Спасти рядового Райана / Saving Private Ryan (1998) BDRip-AVC | iPhone | D скачать через торрент бесплатно

    Опубликовал: Админ | Дата: 27-02-2015, 11:10 | Просмотров: 207



    Спасти рядового Райана / Saving Private Ryan (1998) BDRip-AVC | iPhone | D

    Русское название: Спасти рядового Райана
    Русское название в мировом прокате: Saving Private Ryan
    Создали в: 1998
    Категория жанра: драма
    Главный режиссер: Стивен Спилберг
    Актеры: Том Хэнкс, Том Сайзмор, Эдвард Бёрнс, Барри Пеппер, Адам Голдберг, Вин Дизель, Джованни Рибизи, Джереми Дэвис, Мэтт Дэймон, Тед Дэнсон

    Сюжет фильма:
    Капитан Джон Миллер получает тяжелое задание. Вместе с отрядом из восьми человек Миллер должен отправиться в тыл врага на поиски рядового Джеймса Райана, три родных брата которого почти одновременно погибли на полях сражений.
    Командование приняло решение демобилизовать Райана и отправить его на родину к безутешной матери. Но для того, чтобы найти и спасти солдата, крошечному отряду придется пройти через все круги ада...



    Снималось в: США
    Киностудия: MGM
    Время просмотра: 02:48:23
    Перевод текста: Русский дублированный

    Файл
    Кодек для видео: H.264
    Качество фильма: BDRip-AVC 480p
    Информация о видео: 640x460@852x460 (1.85:1) at 23.976 fps, AVC at 1800 kbps
    Информация о звуке:
    1: АAС 2.0 140 kbps - Русский дублированный
    2: АAС 2.0 140 kbps - Английский
    Субтитры: Русские

    MI

    General
    Complete name : C:CREATE480outSaving Private Ryan.1998 (SD).m4v
    Format : MPEG-4
    Codec ID : M4V
    File size : 2.46 GiB
    Duration : 2h 48mn
    Overall bit rate mode : Variable
    Overall bit rate : 2 085 Kbps
    Movie name : Спасти рядового Райана
    Performer : Steven Spielberg
    Genre : Drama
    Recorded date : UTC 1998-07-24 07:00:00
    Encoded date : UTC 2014-03-12 18:41:59
    Tagged date : UTC 2014-03-12 19:07:10
    Copyright : © 1998 DreamWorks LLC and Paramount Pictures and Amblin Entertainment. All Rights Reserved.
    Cover : Yes
    Comment : The movie that inspired to the world to remember
    iTunEXTC : mpaa|R|400|

    sonm : Saving Private Ryan
    desc : Капитан Джон Миллер получает тяжелое задание. Вместе с отрядом из восьми человек Миллер должен отправиться в тыл врага на поиски рядового Джеймса Райана, три родных брата которого почти одновременно погибли на полях сражений.
    ldes : Капитан Джон Миллер получает тяжелое задание. Вместе с отрядом из восьми человек Миллер должен отправиться в тыл врага на поиски рядового Джеймса Райана, три родных брата которого почти одновременно погибли на полях сражений. / Командование приняло решение демобилизовать Райана и отправить его на родину к безутешной матери. Но для того, чтобы найти и спасти солдата, крошечному отряду придется пройти через все круги ада...
    hdvd : 0
    stik : 9
    cnID : 374883182
    xid : Apple:vendor_id:1998-371

    Video
    ID : 1
    Format : AVC
    Format/Info : Advanced Video Codec
    Format profile : Baseline@L3.0
    Format settings, CABAC : No
    Format settings, ReFrames : 2 frames
    Codec ID : avc1
    Codec ID/Info : Advanced Video Coding
    Duration : 2h 48mn
    Bit rate : 1 800 Kbps
    Maximum bit rate : 6 635 Kbps
    Width : 640 pixels
    Height : 460 pixels
    Display aspect ratio : 1.85:1
    Frame rate mode : Constant
    Frame rate : 23.976 fps
    Color space : YUV
    Chroma subsampling : 4:2:0
    Bit depth : 8 bits
    Scan type : Progressive
    Bits/(Pixel*Frame) : 0.255
    Stream size : 2.11 GiB (86%)
    Title : Saving Private Ryan _1998_
    Writing library : x264 core 140 r2377 40 929f149 tMod 8-bit@4:2:0 X86_64
    Encoding settings : cabac=0 / ref=2 / deblock=1:-2:-2 / analyse=0x1:0x131 / me=umh / subme=7 / psy=1 / fade_compensate=1.00 / psy_rd=1.00:0.15 / mixed_ref=1 / me_range=32 / chroma_me=1 / trellis=2 / 8x8dct=0 / cqm=0 / deadzone=21,11 / fast_pskip=0 / chroma_qp_offset=-3 / threads=12 / lookahead_threads=2 / sliced_threads=0 / nr=0 / decimate=0 / interlaced=0 / bluray_compat=0 / constrained_intra=0 / fgo=0 / bframes=0 / weightp=0 / keyint=250 / keyint_min=23 / scenecut=40 / intra_refresh=0 / rc_lookahead=96 / rc=2pass / mbtree=1 / bitrate=1800 / ratetol=1.0 / qcomp=0.70 / qpmin=0:0:0 / qpmax=69:69:69 / qpstep=4 / cplxblur=20.0 / qblur=0.5 / vbv_maxrate=5000 / vbv_bufsize=5000 / nal_hrd=none / filler=0 / ip_ratio=1.35 / aq=4:0.90 / aq-sensitivity=10.00 / aq-factor=1.00:1.00:1.00 / aq2=0 / aq3=0
    Language : English
    Encoded date : UTC 2014-03-12 18:41:59
    Tagged date : UTC 2014-03-12 18:43:38
    Matrix coefficients : BT.709

    Audio #1
    ID : 2
    Format : AAC
    Format/Info : Advanced Audio Codec
    Format profile : LC
    Codec ID : 40
    Duration : 2h 48mn
    Bit rate mode : Variable
    Bit rate : 141 Kbps
    Maximum bit rate : 188 Kbps
    Channel(s) : 2 channels
    Channel positions : Front: L R
    Sampling rate : 48.0 KHz
    Compression mode : Lossy
    Stream size : 170 MiB (7%)
    Title : Dub
    Language : Russian
    Encoded date : UTC 2014-03-12 18:26:30
    Tagged date : UTC 2014-03-12 18:43:38

    Audio #2
    ID : 3
    Format : AAC
    Format/Info : Advanced Audio Codec
    Format profile : LC
    Codec ID : 40
    Duration : 2h 48mn
    Bit rate mode : Variable
    Bit rate : 144 Kbps
    Maximum bit rate : 187 Kbps
    Channel(s) : 2 channels
    Channel positions : Front: L R
    Sampling rate : 48.0 KHz
    Compression mode : Lossy
    Stream size : 171 MiB (7%)
    Title : Original
    Language : English
    Encoded date : UTC 2014-03-12 18:34:13
    Tagged date : UTC 2014-03-12 18:43:38

    Text
    ID : 4
    Format : Timed Text
    Muxing mode : sbtl
    Codec ID : tx3g
    Duration : 2h 40mn
    Bit rate mode : Variable
    Bit rate : 93 bps
    Stream size : 109 KiB (0%)
    Title : Subtitle Russian
    Language : Russian
    Encoded date : UTC 2014-03-12 18:43:38
    Tagged date : UTC 2014-03-12 18:43:38

    Menu
    ID : 5
    Codec ID : text
    Duration : 2h 48mn
    Encoded date : UTC 2014-03-12 18:47:18
    Tagged date : UTC 2014-03-12 18:47:18
    Bit rate mode : CBR
    iTunes tags

    Sort Name: Saving Private Ryan
    XID: Apple:vendor_id:1998-371
    Content ID: 374883182
    Copyright: © 1998 DreamWorks LLC and Paramount Pictures and Amblin Entertainment. All Rights Reserved.
    ScreenWriters: Роберт Родат
    Producers: Йен Брайс, Марк Гордон, Гари Левинсон
    Director: Стивен Спилберг
    Cast: Том Хэнкс, Том Сайзмор, Эдвард Бёрнс, Барри Пеппер, Адам Голдберг, Вин Дизель, Джованни Рибизи, Джереми Дэвис, Мэтт Дэймон, Тед Дэнсон
    Rating: R
    Long Deion: Капитан Джон Миллер получает тяжелое задание. Вместе с отрядом из восьми человек Миллер должен отправиться в тыл врага на поиски рядового Джеймса Райана, три родных брата которого почти одновременно погибли на полях сражений.
    Командование приняло решение демобилизовать Райана и отправить его на родину к безутешной матери. Но для того, чтобы найти и спасти солдата, крошечному отряду придется пройти через все круги ада...
    Deion: Капитан Джон Миллер получает тяжелое задание. Вместе с отрядом из восьми человек Миллер должен отправиться в тыл врага на поиски рядового Джеймса Райана, три родных брата которого почти одновременно погибли на полях сражений.
    Release Date: 1998-07-24T07:00:00Z
    Genre: Drama
    Artist: Steven Spielberg
    Name: Спасти рядового Райана
    Comments: The movie that inspired to the world to remember
    x264

    x264 info: frame I:4629 Avg QP:22.26 size: 22219
    x264 info: frame P:237555 Avg QP:24.44 size: 9123
    x264 info: mb I I16..4: 40.0% 0.0% 60.0%
    x264 info: mb P I16..4: 1.2% 0.0% 2.5% P16..4: 52.4% 18.2% 8.3% 1.3% 0.6% skip:15.5%
    x264 info: coded y,uvDC,uvAC intra: 65.8% 48.7% 9.6% inter: 43.5% 13.8% 1.8%
    x264 info: i16 v,h,dc,p: 37% 15% 15% 33%
    x264 info: i4 v,h,dc,ddl,ddr,vr,hd,vl,hu: 19% 12% 21% 8% 10% 10% 8% 8% 5%
    x264 info: i8c dc,h,v,p: 71% 11% 15% 3%
    x264 info: ref P L0: 79.3% 20.7%
    x264 info: kb/s:1797.87




    Залил: gekka
    Размер скачиваемого торрента: 2.46 GB (2638637966 Bytes)

    Спасти рядового Райана / Saving Private Ryan (1998) BDRip-AVC | iPhone | D скачать через торрент бесплатно
    загрузка...
    Рейтинг →
     (голосов: 1, оценка 5/5, голосовать можно 1 раз )

    Другие торренты по теме:

  • Спасти рядового Райана / Saving Private Ryan (1998) BDRip-AVC | D
  • Спасти рядового Райана / Saving Private Ryan (1998) BDRip-AVC от HELLYWOOD | D
  • Спасти рядового Райана / Saving Private Ryan (1998) BDRip-AVC | D
  • Спасти рядового Переса / Salvando al Soldado Perez (2011) WEB-DLRip | P
  • Спасти рядового Райана / Saving Private Ryan (1998) BDRip | D
  • Спасти рядового Райана / Saving Private Ryan (1998) BDRip 1080p от NNNB | D,P,A
  • Военная приемка. Спасти рядового раненого (2015) SATRip
  • Спасти рядового Райана / Saving Private Ryan (1998) BDRip от MediaClub | КПК


    • Комментарии (0):

      Информация

      Информация

        Посетители, находящиеся в группе Гости, не могут оставлять комментарии в данной новости.

        ↓ Меню



        ↓ Опрос

        А Вы добавили сайт в закладки?
        Да
        Не


        Top 10 за месяц (Фильмы)