.
Авторизация | Регистрация
Хочешь лучшие торренты? Добавь свой email!
Добавить
» » Черные кошки (2013) DVDRip от New-Team | лицензия скачать торрент бесплатно




    Черные кошки (2013) DVDRip от New-Team | лицензия скачать торрент бесплатно

    Опубликовал: Админ | Дата: 27-02-2015, 11:10 | Просмотров: 242



    Снималось в: Россия / Горад, Марс Медиа Энтертейнмент, Пантократор
    Категория жанра: военный, драма
    Создали в: 2013
    Время просмотра: 12 x ~00:45:00

    Перевод текста: не требуется
    Субтитры подготовлены: нет
    Оригинальная аудиодорожка: русский

    Главный режиссер: Евгений Лаврентьев

    Актеры: Павел Деревянко, Марина Коняшкина, Ольга Ломоносова, Евгений Сидихин, Тимофей Трибунцев, Александр Гузов, Олег Карпенко, Семен Трескунов, Павел Трубинер, Вадим Норштейн...

    Сюжет: 1947 год. Ростов-на-Дону. В стране, обескровленной войной, царят голод и разруха. Хлеб — в буквальном смысле на вес золота, а стоимость человеческой жизни равняется нулю. Растет число преступлений, появляются бандитские группировки, которые контролируют целые города. Подобно черным кошкам, они появляются незамеченными под покровом ночи и легко уходят с места преступления. Банда, действующая в Ростове, грабит продовольственный склад, оставляя кровавые следы.
    Сотрудник уголовного розыска майор Егор Драгун подозревает, что в ней действуют не обычные уголовники. Его подозрения оправдываются: под бандитов, запутывая следы, маскируются бывшие сотрудники вермахта. Их истинная цель — захват известного немецкого ученого, который находится в лагере для военнопленных на территории Ростова-на-Дону. В Германии ученый работал над созданием атомной бомбы. Если вывезти его в Аргентину, куда после войны переместились фашистские группировки, и дать закончить работу, может начаться ядерная война.
    Цель Драгуна и его подручных — найти и обезвредить преступников. Помощь приходит, откуда не ждали — со стороны настоящих уголовников. Объединившись ради общей цели, они не дадут развязать новую войну.



    Качество фильма: DVDRip (3 x DVD9 R5)
    Тип видео: AVI

    Информация о видео: 720x400 (16:9), 25.000 fps, XViD ~ 1700 kbps avg, 0.236 bit/pixel
    Информация о звуке: 48 kHz, АС3 6 ch, 448 kbps, русский

    Раздача от:
    MediaInfo

    Общее
    Полное имя : Chernye.koshki.2013.O.DVDRip_New-Team_by_avproh1.avi
    Формат : AVI
    Формат/Информация : Audio Video Interleave
    Размер файла : 761 Мбайт
    Продолжительность : 49 м.
    Общий поток : 2157 Кбит/сек
    Программа кодирования : VirtualDubMod 1.5.10.3 | www.virtualdub-fr.org || (build 2550/release)
    Библиотека кодирования : VirtualDubMod build 2550/release

    Видео
    Идентификатор : 0
    Формат : MPEG-4 Visual
    Профиль формата : Advanced Simple@L5
    Параметр BVOP формата : 1
    Параметр QPel формата : Нет
    Параметр GMC формата : Без точки перехода
    Параметр матрицы формата : Выборочная
    Идентификатор кодека : XVID
    Идентификатор кодека/Подсказка : XviD
    Продолжительность : 49 м.
    Битрейт : 1699 Кбит/сек
    Ширина : 720 пикселей
    Высота : 400 пикселей
    Соотношение сторон : 16:9
    Частота кадров : 25,000 кадров/сек
    Цветовое пространство : YUV
    Субдискретизация насыщенности : 4:2:0
    Битовая глубина : 8 бит
    Тип развёртки : Прогрессивная
    Метод сжатия : С потерями
    Бит/(Пиксели*Кадры) : 0.236
    Размер потока : 600 Мбайт (79%)
    Библиотека кодирования : XviD 73

    Аудио
    Идентификатор : 1
    Формат : AC-3
    Формат/Информация : Audio Coding 3
    Расширение режима : CM (complete main)
    Параметр Endianness формата : Big
    Идентификатор кодека : 2000
    Продолжительность : 49 м.
    Вид битрейта : Постоянный
    Битрейт : 448 Кбит/сек
    Каналы : 6 каналов
    Расположение каналов : Front: L C R, Side: L R, LFE
    Частота : 48,0 КГц
    Битовая глубина : 16 бит
    Метод сжатия : С потерями
    Размер потока : 158 Мбайт (21%)
    Выравнивание : Разделение по промежуткам
    Продолжительность промежутка : 40 мс. (1,00 видеокадр)
    Время предзагрузки промежутка : 500 мс.

    Скриншоты для ознакомления:



    Резервные скриншоты:



    Сравнения:

    http://alt.rutor.org/torrent/323693/

    http://screenshotcomparison.com/comparison/66087 - видео SATRip
    http://screenshotcomparison.com/comparison/66090 - звук SATRip

    http://alt.rutor.org/torrent/329969/

    http://screenshotcomparison.com/comparison/66088 - видео WEB-DLRip
    http://screenshotcomparison.com/comparison/66091 - звук WEB-DLRip

    Залил: avproh
    Размер скачиваемого торрента: 8.15 GB (8753645568 Bytes)

    Черные кошки (2013) DVDRip от New-Team | лицензия торрент скачать бесплатно
    загрузка...
    Рейтинг →
     (голосов: 1, оценка 5/5, голосовать можно 1 раз )

    Другие торренты по теме:

  • Черные кошки в бамбуковых зарослях / Yabu no naka no kuroneko (1968) ВDRip-AVC от Тorrent-Хzona
  • Черные кошки (2013) WEB-DL 1080p от Nikolspup
  • Черные кошки (2013) WEB-DL 720p от Nikolspup
  • Черные кошки (2013) SATRip от GeneralFilm
  • Черные кошки (2013) WEB-DLRip скачать через торрент бесплатно
  • Черные кошки (2013) WEB-DLRip | iPhone
  • Черные кошки (2013) WEB-DLRip от Generalfilm | КПК
  • Черные кошки (2013) WEB-DLRip от Generalfilm


    • Комментарии (0):

      Информация

      Информация

        Посетители, находящиеся в группе Гости, не могут оставлять комментарии в данной новости.

        ↓ Меню



        ↓ Опрос

        А Вы добавили сайт в закладки?
        Да
        Не


        Top 10 за месяц (Фильмы)