.
Авторизация | Регистрация
Хочешь лучшие торренты? Добавь свой email!
Добавить
» » Жизнь короля / Life of a King (2013) BDRip 1080p от CINEMANIA | L1 скачать торрент бесплатно




    Жизнь короля / Life of a King (2013) BDRip 1080p от CINEMANIA | L1 скачать торрент бесплатно

    Опубликовал: Админ | Дата: 27-02-2015, 11:10 | Просмотров: 238



    Детально о кино
    Русское название: Жизнь короля
    Русское название в мировом прокате: Life of a King
    Создали в: 2013
    Категория жанра: драма, криминал
    Главный режиссер: Джейк Голдбергер
    Актеры: Кьюба Гудинг мл., Деннис Хейсбёрт, Лиза Гэй Хэмилтон, Тьюрстон Хилл, Чиди Аджуфо, Рики Браун, Буда Карлтон Бёрд, Джим Кэллоуэй

    Сюжет фильма:
    Юджин Браун только что вышел из тюрьмы, где отсидел 17 лет за вооружённое ограбление. Теперь у него мало друзей, совсем нет денег, и ему пришлось работать уборщиком в школе, в которой ученики - просто наказание. Однажды директор попросила его подежурить в группе продлённого дня. Желая чем-нибудь занять ребят, Юджин начинает учить их игре в шахматы. Криминальная сторона жизни напоминает Юджину о себе, но он помнит, что в жизни, как и в шахматах, нужно думать, прежде чем делать ход.



    Снималось в: США
    Время просмотра: 01:41:27
    Тип перевода: Любительское (одноголосое) barin101

    Файл
    Тип видео: MKV
    Качество фильма: BDRip 1080p PHD
    Информация о видео: 9474 kb/s, 1920х1080
    Информация о звуке: Russian: AC3, 192 kb/s (2 ch) / English: DTS, 1510 kb/s (6 ch)
    Субтитры: English
    Дополнительно: Сохранены оригинальные чаптеры как на Blu-Ray
    Размер скачиваемого торрента: 8.08 Gb
    Скачать: Сэмпл

    Релиз группы:



    NFO
    Общее
    Life.of.a.King.2013.Blu.Ray.1080p.CINEMANIA.mkv
    Формат : Matroska
    Версия формата : Version 4 / Version 2
    Размер файла : 8,08 Гбайт
    Продолжительность : 1 ч. 41 м.
    Общий поток : 11,4 Мбит/сек
    Название фильма : Release Group CINEMANIA
    Дата кодирования : UTC 2014-03-08 22:27:24
    Программа кодирования : mkvmerge v6.8.0 (;Theme for Great Cities;) 64bit built on Mar 2 2014 21:34:26
    Библиотека кодирования : libebml v1.3.0 libmatroska v1.4.1

    Видео
    Идентификатор : 1
    Формат : AVC
    Формат/Информация : Advanced Video Codec
    Профиль формата : High@L4.1
    Параметр CABAC формата : Да
    Параметр ReFrames формата : 4 кадра
    Идентификатор кодека : V_MPEG4/ISO/AVC
    Продолжительность : 1 ч. 41 м.
    Битрейт : 9474 Кбит/сек
    Ширина : 1920 пикселей
    Высота : 1080 пикселей
    Соотношение сторон : 16:9
    Режим частоты кадров : Постоянный
    Частота кадров : 23,976 кадра/сек
    Цветовое пространство : YUV
    Субдискретизация насыщенности : 4:2:0
    Битовая глубина : 8 бит
    Тип развёртки : Прогрессивная
    Бит/(Пиксели*Кадры) : 0.191
    Размер потока : 6,71 Гбайт (83%)
    Заголовок : Release Group CINEMANIA
    Язык : English
    Default : Да
    Forced : Нет

    Аудио #1
    Идентификатор : 2
    Формат : AC-3
    Формат/Информация : Audio Coding 3
    Расширение режима : CM (complete main)
    Параметр Endianness формата : Big
    Идентификатор кодека : A_AC3
    Продолжительность : 1 ч. 41 м.
    Вид битрейта : Постоянный
    Битрейт : 192 Кбит/сек
    Каналы : 2 канала
    Расположение каналов : Front: L R
    Частота : 48,0 КГц
    Битовая глубина : 16 бит
    Метод сжатия : С потерями
    Размер потока : 139 Мбайт (2%)
    Заголовок : barin101
    Язык : Russian
    Default : Да
    Forced : Да

    Аудио #2
    Идентификатор : 3
    Формат : DTS
    Формат/Информация : Digital Theater Systems
    Режим : 16
    Параметр Endianness формата : Big
    Идентификатор кодека : A_DTS
    Продолжительность : 1 ч. 41 м.
    Вид битрейта : Постоянный
    Битрейт : 1510 Кбит/сек
    Каналы : 6 каналов
    Расположение каналов : Front: L C R, Side: L R, LFE
    Частота : 48,0 КГц
    Битовая глубина : 24 бит
    Метод сжатия : С потерями
    Размер потока : 1,07 Гбайт (13%)
    Язык : English
    Default : Нет
    Forced : Нет

    Текст
    Идентификатор : 4
    Формат : UTF-8
    Идентификатор кодека : S_TEXT/UTF8
    Идентификатор кодека/Информация : UTF-8 Plain Text
    Язык : English
    Default : Нет
    Forced : Нет

    Меню
    00:00:00.000 : en:00:00:00.000
    00:07:40.377 : en:00:07:40.377
    00:18:10.715 : en:00:18:10.715
    00:24:59.832 : en:00:24:59.832
    00:34:12.259 : en:00:34:12.259
    00:42:24.417 : en:00:42:24.417
    00:50:49.088 : en:00:50:49.088
    00:59:20.140 : en:00:59:20.140
    01:07:08.524 : en:01:07:08.524
    01:16:46.143 : en:01:16:46.143
    01:28:19.127 : en:01:28:19.127
    01:37:48.946 : en:01:37:48.946

    Залил: DGEKIGAN
    Размер скачиваемого торрента: 8.08 GB (8676865895 Bytes)

    Жизнь короля / Life of a King (2013) BDRip 1080p от CINEMANIA | L1 торрент скачать бесплатно
    загрузка...
    Рейтинг →
     (голосов: 1, оценка 4/5, голосовать можно 1 раз )

    Другие торренты по теме:

  • Жизнь короля / Life of a King (2013) BDRip 720p от CINEMANIA | L1 скачать через торрент бесплатно


    • Комментарии (0):

      Информация

      Информация

        Посетители, находящиеся в группе Гости, не могут оставлять комментарии в данной новости.

        ↓ Меню



        ↓ Опрос

        А Вы добавили сайт в закладки?
        Да
        Не


        Top 10 за месяц (Фильмы)