.
Авторизация | Регистрация
Хочешь лучшие торренты? Добавь свой email!
Добавить
» » Заклятие / The Conjuring (2013) BDRemux 1080p от GORESEWAGE | 3xDub, L1 скачать торрент бесплатно




    Заклятие / The Conjuring (2013) BDRemux 1080p от GORESEWAGE | 3xDub, L1 скачать торрент бесплатно

    Опубликовал: Админ | Дата: 27-02-2015, 11:10 | Просмотров: 325



    Заклятие / The Conjuring

    Создали в: 2013
    Снималось в: США
    Категория жанра: ужасы, триллер
    Время просмотра: 01:51:57
    Перевод текста 1: Профессиональный (дублированный) BD CEE
    Перевод текста 2: Профессиональный (дублированный) Не кинотеатральный
    Перевод текста 3: Любительский (одноголосый закадровый) Хихикающий доктор
    Перевод текста 4: Профессиональный (дублированный) Студия Postmodern (Ukrainian)
    Оригинальная аудиодорожка: English
    Субтитры: Russian (Forced BD CEE, Full BD CEE, Full 2), Ukrainian (Forced DVD, Full DVD), English (Full, SDH, SDH Colored) Finnish (Full), French (Full), Greek (Full), Polish (Full), Portuguese (Full), Spanish (Full, Full Latin), Swedish (Full)
    Киностудия: New Line Cinema (presentation), The Safran Company (production), Evergreen Media Group (production)

    Главный режиссёр: Джеймс Ван / James Wan

    Актеры: Вера Фармига, Патрик Уилсон, Рон Ливингстон, Лили Тейлор, Шэнли Касвелл, Хейли МакФарланд, Джои Кинг, Маккензи Фой, Кайла Дивер, Шэннон Кук-Чун и др.

    Сюжет: Фильм основан на реальных событиях из практики Эда и Лоррейн Уоррен. Пугающая история Эда и Лоррейн Уоррен, всемирно известных детективов, занимающихся паранормальными расследованиями. К ним за помощью обратилась семья, терроризируемая тёмным духом на уединённой ферме. Вынужденные сражаться с могущественной демонической сущностью Уоррены сталкиваются с самым пугающим случаем в своей жизни.



    Sample

    Качество фильма: BDRemux 1080p (The Conjuring 2013 Blu-ray 1080p AVC DTS HD MA5.1-TTG)
    Контейнер: MKV
    Информация о видео кодек: MPEG-4 AVC Video
    Информация о звуке кодек: DTS-HD MA / AC3
    Информация о видео: MPEG-4 AVC Video / 24745 kbps / 1920x1080p / 23,976 fps / 16:9 / High Profile 4.1
    Информация о звуке 1: Russian / AC3 / 5.1 / 48 kHz / 640 kbps / 16-bit | Dub BD CEE
    Информация о звуке 2: Russian / AC3 / 5.1 / 48 kHz / 448 kbps / 16-bit | Dub (Не кинотеатральный)
    Информация о звуке 3: Russian / DTS-HD MA / 5.1 / 48 kHz / 3571 kbps / 24-bit | VO Хихикающий доктор
    Информация о звуке 4: Ukrainian / AC3 / 2.0 / 48 kHz / 192 kbps / 16-bit | Dub Студия Postmodern
    Информация о звуке 5: English / DTS-HD MA / 5.1 / 48 kHz / 3546 kbps / 24-bit | Original
    Информация о звуке 6: English / AC3 / 5.1 / 48 kHz / 640 kbps / 16-bit | Descriрtion
    Навигация по главам: да

    Screens

    MediaInfo
    C:/GORESEWAGE/The Conjuring 2013 BDRemux 1080p GORESEWAGE.mkv
    General
    Unique ID : 199945895741602960992521903651244041222 (0x966C2DC4F58AF1E8B1745D2E68E16406)
    Complete name : C:/GORESEWAGE/The Conjuring 2013 BDRemux 1080p GORESEWAGE.mkv
    Format : Matroska
    Format version : Version 4 / Version 2
    File size : 26.4 GiB
    Duration : 1h 51mn
    Overall bit rate mode : Variable
    Overall bit rate : 33.8 Mbps
    Movie name : The Conjuring 2013 BDRemux 1080p GORESEWAGE
    Encoded date : UTC 2014-03-08 16:35:07
    Writing application : mkvmerge v6.8.0 (;Theme for Great Cities;) 64bit built on Mar 2 2014 21:34:26
    Writing library : libebml v1.3.0 libmatroska v1.4.1
    Attachment : Yes
    Video #1
    ID : 1
    Format : AVC
    Format/Info : Advanced Video Codec
    Format profile : High@L4.1
    Format settings, CABAC : Yes
    Format settings, ReFrames : 2 frames
    Codec ID : V_MPEG4/ISO/AVC
    Duration : 1h 51mn
    Bit rate mode : Variable
    Width : 1 920 pixels
    Height : 1 080 pixels
    Display aspect ratio : 16:9
    Frame rate mode : Constant
    Frame rate : 23.976 fps
    Color space : YUV
    Chroma subsampling : 4:2:0
    Bit depth : 8 bits
    Scan type : Progressive
    Title : The Conjuring 2013 BDRemux 1080p GORESEWAGE
    Language : English
    Default : Yes
    Forced : No
    Audio #2
    ID : 2
    Format : AC-3
    Format/Info : Audio Coding 3
    Mode extension : CM (complete main)
    Format settings, Endianness : Big
    Codec ID : A_AC3
    Duration : 1h 51mn
    Bit rate mode : Constant
    Bit rate : 640 Kbps
    Channel count : 6 channels
    Channel positions : Front: L C R, Side: L R, LFE
    Sampling rate : 48.0 KHz
    Bit depth : 16 bits
    Compression mode : Lossy
    Stream size : 513 MiB (2%)
    Title : Dub BD CEE
    Language : Russian
    Default : Yes
    Forced : No
    Audio #3
    ID : 3
    Format : AC-3
    Format/Info : Audio Coding 3
    Mode extension : CM (complete main)
    Format settings, Endianness : Big
    Codec ID : A_AC3
    Duration : 1h 51mn
    Bit rate mode : Constant
    Bit rate : 448 Kbps
    Channel count : 6 channels
    Channel positions : Front: L C R, Side: L R, LFE
    Sampling rate : 48.0 KHz
    Bit depth : 16 bits
    Compression mode : Lossy
    Stream size : 359 MiB (1%)
    Title : Dub (Не кинотеатральный)
    Language : Russian
    Default : No
    Forced : No
    Audio #4
    ID : 4
    Format : DTS
    Format/Info : Digital Theater Systems
    Format profile : MA / Core
    Mode : 16
    Format settings, Endianness : Big
    Codec ID : A_DTS
    Duration : 1h 51mn
    Bit rate mode : Variable
    Bit rate : Unknown / 1 509 Kbps
    Channel count : 6 channels
    Channel positions : Front: L C R, Side: L R, LFE
    Sampling rate : 48.0 KHz
    Bit depth : 24 bits
    Compression mode : Lossless / Lossy
    Title : VO Хихикающий доктор
    Language : Russian
    Default : No
    Forced : No
    Audio #5
    ID : 5
    Format : AC-3
    Format/Info : Audio Coding 3
    Mode extension : CM (complete main)
    Format settings, Endianness : Big
    Codec ID : A_AC3
    Duration : 1h 51mn
    Bit rate mode : Constant
    Bit rate : 192 Kbps
    Channel count : 2 channels
    Channel positions : Front: L R
    Sampling rate : 48.0 KHz
    Bit depth : 16 bits
    Compression mode : Lossy
    Stream size : 154 MiB (1%)
    Title : Dub Postmodern
    Language : Ukrainian
    Default : No
    Forced : No
    Audio #6
    ID : 6
    Format : DTS
    Format/Info : Digital Theater Systems
    Format profile : MA / Core
    Mode : 16
    Format settings, Endianness : Big
    Codec ID : A_DTS
    Duration : 1h 51mn
    Bit rate mode : Variable
    Bit rate : Unknown / 1 509 Kbps
    Channel count : 6 channels
    Channel positions : Front: L C R, Side: L R, LFE
    Sampling rate : 48.0 KHz
    Bit depth : 24 bits
    Compression mode : Lossless / Lossy
    Title : Original
    Language : English
    Default : No
    Forced : No
    Audio #7
    ID : 7
    Format : AC-3
    Format/Info : Audio Coding 3
    Mode extension : CM (complete main)
    Format settings, Endianness : Big
    Codec ID : A_AC3
    Duration : 1h 51mn
    Bit rate mode : Constant
    Bit rate : 640 Kbps
    Channel count : 6 channels
    Channel positions : Front: L C R, Side: L R, LFE
    Sampling rate : 48.0 KHz
    Bit depth : 16 bits
    Compression mode : Lossy
    Stream size : 513 MiB (2%)
    Title : Descriрtion
    Language : English
    Default : No
    Forced : No
    Text #8
    ID : 8
    Format : UTF-8
    Codec ID : S_TEXT/UTF8
    Codec ID/Info : UTF-8 Plain Text
    Title : Forced BD CEE
    Language : Russian
    Default : Yes
    Forced : No
    Text #9
    ID : 9
    Format : UTF-8
    Codec ID : S_TEXT/UTF8
    Codec ID/Info : UTF-8 Plain Text
    Title : Full BD CEE
    Language : Russian
    Default : No
    Forced : No
    Text #10
    ID : 10
    Format : UTF-8
    Codec ID : S_TEXT/UTF8
    Codec ID/Info : UTF-8 Plain Text
    Title : Full 2
    Language : Russian
    Default : No
    Forced : No
    Text #11
    ID : 11
    Format : UTF-8
    Codec ID : S_TEXT/UTF8
    Codec ID/Info : UTF-8 Plain Text
    Title : Forced DVD
    Language : Ukrainian
    Default : No
    Forced : No
    Text #12
    ID : 12
    Format : UTF-8
    Codec ID : S_TEXT/UTF8
    Codec ID/Info : UTF-8 Plain Text
    Title : Full DVD
    Language : Ukrainian
    Default : No
    Forced : No
    Text #13
    ID : 13
    Format : UTF-8
    Codec ID : S_TEXT/UTF8
    Codec ID/Info : UTF-8 Plain Text
    Title : Full
    Language : English
    Default : No
    Forced : No
    Text #14
    ID : 14
    Format : UTF-8
    Codec ID : S_TEXT/UTF8
    Codec ID/Info : UTF-8 Plain Text
    Title : SDH
    Language : English
    Default : No
    Forced : No
    Text #15
    ID : 15
    Format : UTF-8
    Codec ID : S_TEXT/UTF8
    Codec ID/Info : UTF-8 Plain Text
    Title : SDH Colored
    Language : English
    Default : No
    Forced : No
    Text #16
    ID : 16
    Format : UTF-8
    Codec ID : S_TEXT/UTF8
    Codec ID/Info : UTF-8 Plain Text
    Title : Full
    Language : Finnish
    Default : No
    Forced : No
    Text #17
    ID : 17
    Format : UTF-8
    Codec ID : S_TEXT/UTF8
    Codec ID/Info : UTF-8 Plain Text
    Title : Full
    Language : French
    Default : No
    Forced : No
    Text #18
    ID : 18
    Format : UTF-8
    Codec ID : S_TEXT/UTF8
    Codec ID/Info : UTF-8 Plain Text
    Title : Full
    Language : Greek
    Default : No
    Forced : No
    Text #19
    ID : 19
    Format : UTF-8
    Codec ID : S_TEXT/UTF8
    Codec ID/Info : UTF-8 Plain Text
    Title : Full
    Language : Polish
    Default : No
    Forced : No
    Text #20
    ID : 20
    Format : UTF-8
    Codec ID : S_TEXT/UTF8
    Codec ID/Info : UTF-8 Plain Text
    Title : Full
    Language : Portuguese
    Default : No
    Forced : No
    Text #21
    ID : 21
    Format : UTF-8
    Codec ID : S_TEXT/UTF8
    Codec ID/Info : UTF-8 Plain Text
    Title : Full
    Language : Spanish
    Default : No
    Forced : No
    Text #22
    ID : 22
    Format : UTF-8
    Codec ID : S_TEXT/UTF8
    Codec ID/Info : UTF-8 Plain Text
    Title : Full Latin
    Language : Spanish
    Default : No
    Forced : No
    Text #23
    ID : 23
    Format : UTF-8
    Codec ID : S_TEXT/UTF8
    Codec ID/Info : UTF-8 Plain Text
    Title : Full
    Language : Swedish
    Default : No
    Forced : No
    Menu
    00:00:00.000 : en:Chapter 1
    00:08:52.991 : en:Chapter 2
    00:19:26.665 : en:Chapter 3
    00:29:15.754 : en:Chapter 4
    00:40:50.239 : en:Chapter 5
    00:51:06.730 : en:Chapter 6
    00:59:55.467 : en:Chapter 7
    01:10:37.150 : en:Chapter 8
    01:21:03.108 : en:Chapter 9
    01:28:59.292 : en:Chapter 10
    01:38:10.760 : en:Chapter 11
    01:46:08.362 : en:Chapter 12

    Размер скачиваемого торрента: 26.41 GB (28356383954 Bytes)

    Заклятие / The Conjuring (2013) BDRemux 1080p от GORESEWAGE | 3xDub, L1 торрент скачать бесплатно
    загрузка...
    Рейтинг →
     (голосов: 1, оценка 5/5, голосовать можно 1 раз )

    Другие торренты по теме:

  • Заклятие долины змей / Klatwa Doliny Wezy (1987) DVDRip
  • Прозоров Александр - Заклятие предков (2004) (2013) MP3
  • Заклятие / The Conjuring (2013) CAMRip
  • Заклятие / The Conjuring (2013) WEBRip-AVC | L1
  • Заклятие / The Conjuring (2013) DVDRip | L1
  • Заклятие / The Conjuring (2013) DVDRip | Звук с CAMRip
  • Заклятие / The Conjuring (2013) DVDRip от INTERCINEMA | L1 скачать через торрент бесплатно
  • Заклятие / The Conjuring (2013) BDRip 1080p от MULTIBITS | Звук с CAMRip | L1 скачать через торрент бесплатно


    • Комментарии (0):

      Информация

      Информация

        Посетители, находящиеся в группе Гости, не могут оставлять комментарии в данной новости.

        ↓ Меню



        ↓ Опрос

        А Вы добавили сайт в закладки?
        Да
        Не


        Top 10 за месяц (Фильмы)