.
Авторизация | Регистрация
Хочешь лучшие торренты? Добавь свой email!
Добавить
» » Расчёт / The Clearing (2004) BDRip by msltel | P, A скачать торрент бесплатно




    Расчёт / The Clearing (2004) BDRip by msltel | P, A скачать торрент бесплатно

    Опубликовал: Админ | Дата: 27-02-2015, 11:10 | Просмотров: 228



    Русское название: Расчёт
    Русское название в мировом прокате: The Clearing
    Категория жанра: Триллер, драма, криминал
    Снималось в: США, Германия, Fox Searchlight Pictures, Thousand Words, Wildwood Enterprises
    Главный режиссер: Питер Жан Брюгге
    Актеры: Роберт Редфорд, Хелен Миррен, Уиллем Дефо, Алессандро Нивола, Мэтт Крэвен, Мелисса Сейджмиллер, Венди Крюсон, Ларри Пайн, Дайана Скаруид, Элизабет Руссо, Сара Коскофф, Грасиэла Марин, Майк Пневски, Джофф МакНайт, Одри Василевски, Питер Гэннон, Мэтт Миллер, Марк Эмери Мур, Джоэль Нанли

    Сюжет фильма: Уэйн и Эйлин Хэйес — образцовая американская семья. У них двое прекрасных детей и вполне успешный бизнес, который они поднимали вместе с нуля. Но жизнь уготовила супружеской паре суровое испытание. Однажды Уэйна похищают. Человек, спрятавший его в лесу, обычный обыватель Арнольд Мэк, находящийся на грани отчаяния и уставший от безденежья и нищеты, решил получить большой выкуп…

    Качество фильма: BDRip
    Размер скачиваемого торрента: 2.28 ГБ
    Время просмотра: 01:34:26

    Информация о видео: XviD, 1903 Кбит/с, 720x384
    Информация о звуке 1: русский, 48 kHz, AC3, 6 ch, 448 kbps avg, Профессиональный многоголосый
    Информация о звуке 2: русский, 48 kHz, AC3, 2 ch, 192 kbps avg, Авторский, Евгений Гранкин
    Информация о звуке 3: русский, 48 kHz, AC3, 6 ch, 448 kbps avg, Авторский, Сергей Визгунов

    Внешние файлы
    Информация о звуке: английский, 48 kHz, AC3, 6 ch, 448 kbps avg, Оригинал
    Субтитры: русские
    Субтитры: английские (для слабослышащих)

    Исходник: bodia92 (Кинозал)

    Сравнение с исходником



    MediaInfo
    Общее
    Полное имя : D:VideoRaschet.2004.XviD.BDRipRaschet.2004.eng.SDH.srt
    Размер файла : 115 Кбайт

    Общее
    Полное имя : D:VideoRaschet.2004.XviD.BDRipRaschet.2004.Original.eng.ac3
    Формат : AC-3
    Формат/Информация : Audio Coding 3
    Размер файла : 303 Мбайт
    Продолжительность : 1 ч. 34 м.
    Режим общего битрейта : Постоянный
    Общий поток : 448 Кбит/сек

    Аудио
    Формат : AC-3
    Формат/Информация : Audio Coding 3
    Расширение режима : CM (complete main)
    Параметр Endianness формата : Big
    Продолжительность : 1 ч. 34 м.
    Вид битрейта : Постоянный
    Битрейт : 448 Кбит/сек
    Каналы : 6 каналов
    Расположение каналов : Front: L C R, Side: L R, LFE
    Частота : 48,0 КГц
    Битовая глубина : 16 бит
    Метод сжатия : С потерями
    Размер потока : 303 Мбайт (100%)

    Общее
    Полное имя : D:VideoRaschet.2004.XviD.BDRipRaschet.2004.rus.srt
    Размер файла : 107 Кбайт

    Общее
    Полное имя : D:VideoRaschet.2004.XviD.BDRipRaschet.2004.XviD.BDRip.avi
    Формат : AVI
    Формат/Информация : Audio Video Interleave
    Размер файла : 1,99 Гбайт
    Продолжительность : 1 ч. 34 м.
    Общий поток : 3010 Кбит/сек
    Программа кодирования : VirtualDubMod 1.5.10.2 (build 2540/release)
    Библиотека кодирования : VirtualDubMod build 2540/release

    Видео
    Идентификатор : 0
    Формат : MPEG-4 Visual
    Профиль формата : Advanced Simple@L5
    Параметр BVOP формата : 1
    Параметр QPel формата : Нет
    Параметр GMC формата : Без точки перехода
    Параметр матрицы формата : Default (H.263)
    Режим смешивания : Сжатый битовый поток
    Идентификатор кодека : XVID
    Идентификатор кодека/Подсказка : XviD
    Продолжительность : 1 ч. 34 м.
    Битрейт : 1903 Кбит/сек
    Ширина : 720 пикселей
    Высота : 384 пикселя
    Соотношение сторон : 1,85:1
    Частота кадров : 23,976 кадра/сек
    Цветовое пространство : YUV
    Субдискретизация насыщенности : 4:2:0
    Битовая глубина : 8 бит
    Тип развёртки : Прогрессивная
    Метод сжатия : С потерями
    Бит/(Пиксели*Кадры) : 0.287
    Размер потока : 1,26 Гбайт (63%)
    Библиотека кодирования : XviD 1.2.1 (UTC 2008-12-04)

    Аудио #1
    Идентификатор : 1
    Формат : AC-3
    Формат/Информация : Audio Coding 3
    Расширение режима : CM (complete main)
    Параметр Endianness формата : Big
    Идентификатор кодека : 2000
    Продолжительность : 1 ч. 34 м.
    Вид битрейта : Постоянный
    Битрейт : 448 Кбит/сек
    Каналы : 6 каналов
    Расположение каналов : Front: L C R, Side: L R, LFE
    Частота : 48,0 КГц
    Битовая глубина : 16 бит
    Метод сжатия : С потерями
    Размер потока : 303 Мбайт (15%)
    Выравнивание : Разделение по промежуткам
    Продолжительность промежутка : 42 мс. (1,00 видеокадр)
    Время предзагрузки промежутка : 500 мс.

    Аудио #2
    Идентификатор : 2
    Формат : AC-3
    Формат/Информация : Audio Coding 3
    Профиль формата : Dolby Digital
    Расширение режима : CM (complete main)
    Параметр Endianness формата : Big
    Идентификатор кодека : 2000
    Продолжительность : 1 ч. 34 м.
    Вид битрейта : Постоянный
    Битрейт : 192 Кбит/сек
    Каналы : 2 канала
    Расположение каналов : Front: L R
    Частота : 48,0 КГц
    Битовая глубина : 16 бит
    Метод сжатия : С потерями
    Размер потока : 130 Мбайт (6%)
    Выравнивание : Разделение по промежуткам
    Продолжительность промежутка : 42 мс. (1,00 видеокадр)
    Время предзагрузки промежутка : 500 мс.

    Аудио #3
    Идентификатор : 3
    Формат : AC-3
    Формат/Информация : Audio Coding 3
    Расширение режима : CM (complete main)
    Параметр Endianness формата : Big
    Идентификатор кодека : 2000
    Продолжительность : 1 ч. 34 м.
    Вид битрейта : Постоянный
    Битрейт : 448 Кбит/сек
    Каналы : 6 каналов
    Расположение каналов : Front: L C R, Side: L R, LFE
    Частота : 48,0 КГц
    Битовая глубина : 16 бит
    Метод сжатия : С потерями
    Размер потока : 303 Мбайт (15%)
    Выравнивание : Разделение по промежуткам
    Продолжительность промежутка : 42 мс. (1,00 видеокадр)
    Время предзагрузки промежутка : 500 мс.
    Скриншоты для ознакомления



    Залил: msltel
    Размер скачиваемого торрента: 2.28 GB (2449632008 Bytes)

    Расчёт / The Clearing (2004) BDRip by msltel | P, A торрент скачать бесплатно
    загрузка...
    Рейтинг →
     (голосов: 1, оценка 3/5, голосовать можно 1 раз )

    Другие торренты по теме:

  • Расчёт / The Clearing (2004) BDRip 720p by msltel | P, A
  • Расчёт / The Clearing (2004) BDRip 1080p by msltel | P, A скачать через торрент бесплатно
  • Мой боевой расчёт / 1987 / РУ / DVDRip
  • Томбой / Взаимный расчёт / Tomboy / The Assignment (2016) WEB-DLRip-AVC | L1
  • Томбой / Взаимный расчёт / Tomboy / The Assignment (2016) BDRip 720p от ExKinoRay | L, L1
  • Томбой / Взаимный расчёт / Tomboy (2016) BDRip 1080p от HELLYWOOD | A, L, L1
  • Томбой / Взаимный расчёт / Tomboy / The Assignment (2016) BDRip | L
  • Томбой / Взаимный расчёт / Tomboy / The Assignment (2016) BDRip | L


    • Комментарии (0):

      Информация

      Информация

        Посетители, находящиеся в группе Гости, не могут оставлять комментарии в данной новости.

        ↓ Меню



        ↓ Опрос

        А Вы добавили сайт в закладки?
        Да
        Не


        Top 10 за месяц (Фильмы)