.
Авторизация | Регистрация
Хочешь лучшие торренты? Добавь свой email!
Добавить
» » Мотель / The Bag Man (2014) WEB-DL 720p | L1 скачать торрент бесплатно




    Мотель / The Bag Man (2014) WEB-DL 720p | L1 скачать торрент бесплатно

    Опубликовал: Админ | Дата: 27-02-2015, 11:10 | Просмотров: 275



    Детально о кино
    Русское название: Мотель / Сумка / Комната 13 / Человек с сумкой
    Русское название в мировом прокате: The Bag Man / Motel Room 13 / Motel
    Создали в: 2014
    Категория жанра: триллер, криминал
    Главный режиссер: Дэвид Гровик
    Актеры: Роберт Де Ниро, Джон Кьюсак, Ребекка Да Коста, Криспин Гловер, Доминик Пёрселл, Стикки Фингаз, Мартин Клебба, Дэвид Шамбрис, Чезз Менендес, Йен Маклафлин

    Сюжет фильма: Наемный убийца Джек Стаффорд получает несложное задание: приехать в заштатный мотель в 300 милях от Питтсбурга, получить сумку с таинственным содержимым и оставаться в номере, пока за грузом не приедут. Условие одно: ни при каких обстоятельствах не заглядывать внутрь сумки. Но поручение оказывается простым лишь на первый взгляд. Вскоре киллер понимает, что за доверенным ему предметом охотятся коррумпированные агенты ФБР, продажные полицейские, провинциальные гангстеры. И каждый хочет всадить в Джека пулю. Число жертв растет на глазах, и дожить до рассвета смогут далеко не все постояльцы мотеля.



    Снималось в: США
    Время просмотра: 01:48:34
    Перевод текста: Любительский (одноголосый, закадровый) - qwerty

    Файл
    Качество фильма: WEB-DL 720p
    Тип видео: MKV
    Информация о видео: MPEG4/AVC, 1280х528 (2.40:1), 4078 Кбит/сек, 23.976 кадра/сек
    Информация о звуке 1: Rus, AC3, 384 Кбит/сек (6 каналов)
    Информация о звуке 2: Eng, AC3, 384 Кбит/сек (6 каналов)
    Субтитры: Английские
    Навигация по главам: Есть

    MediaInfo:
    Общее
    Уникальный идентификатор : 247323455781611969243321841481190548486 (0xBA10C3D35D4571588A911DFB92E52406)
    Полное имя : The Bag Man.(2013) WEB-DL-720p.mkv
    Формат : Matroska
    Версия формата : Version 2
    Размер файла : 3,75 Гбайт
    Продолжительность : 1 ч. 48 м.
    Общий поток : 4945 Кбит/сек
    Дата кодирования : UTC 2014-03-09 10:18:45
    Программа кодирования : mkvmerge v5.8.0 (;No Sleep / Pillow;) built on Sep 2 2012 15:37:04
    Библиотека кодирования : libebml v1.2.3 libmatroska v1.3.0

    Видео
    Идентификатор : 1
    Формат : AVC
    Формат/Информация : Advanced Video Codec
    Профиль формата : Main@L3.1
    Параметр CABAC формата : Нет
    Параметр ReFrames формата : 2 кадра
    Идентификатор кодека : V_MPEG4/ISO/AVC
    Продолжительность : 1 ч. 48 м.
    Битрейт : 4078 Кбит/сек
    Ширина : 1280 пикселей
    Высота : 528 пикселей
    Соотношение сторон : 2,40:1
    Режим частоты кадров : Постоянный
    Частота кадров : 23,976 кадра/сек
    Цветовое пространство : YUV
    Субдискретизация насыщенности : 4:2:0
    Битовая глубина : 8 бит
    Тип развёртки : Прогрессивная
    Бит/(Пиксели*Кадры) : 0.252
    Размер потока : 3,09 Гбайт (82%)
    Язык : English
    Default : Да
    Forced : Нет
    Основные цвета : BT.709
    Характеристики трансфера : BT.709
    Коэффициенты матрицы : BT.709

    Аудио #1
    Идентификатор : 2
    Формат : AC-3
    Формат/Информация : Audio Coding 3
    Расширение режима : CM (complete main)
    Параметр Endianness формата : Big
    Идентификатор кодека : A_AC3
    Продолжительность : 1 ч. 48 м.
    Вид битрейта : Постоянный
    Битрейт : 384 Кбит/сек
    Каналы : 6 каналов
    Расположение каналов : Front: L C R, Side: L R, LFE
    Частота : 48,0 КГц
    Битовая глубина : 16 бит
    Метод сжатия : С потерями
    Размер потока : 298 Мбайт (8%)
    Заголовок : AC3 | 384 Kbps | L1
    Язык : Russian
    Default : Да
    Forced : Нет

    Аудио #2
    Идентификатор : 3
    Формат : AC-3
    Формат/Информация : Audio Coding 3
    Расширение режима : CM (complete main)
    Параметр Endianness формата : Big
    Идентификатор кодека : A_AC3
    Продолжительность : 1 ч. 48 м.
    Вид битрейта : Постоянный
    Битрейт : 384 Кбит/сек
    Каналы : 6 каналов
    Расположение каналов : Front: L C R, Side: L R, LFE
    Частота : 48,0 КГц
    Битовая глубина : 16 бит
    Метод сжатия : С потерями
    Размер потока : 298 Мбайт (8%)
    Заголовок : AC3 | 384 Kbps
    Язык : English
    Default : Нет
    Forced : Нет

    Текст
    Идентификатор : 4
    Формат : UTF-8
    Идентификатор кодека : S_TEXT/UTF8
    Идентификатор кодека/Информация : UTF-8 Plain Text
    Заголовок : Eng
    Язык : English
    Default : Нет
    Forced : Нет

    Меню
    00:00:00.000 : en:1
    00:05:25.000 : en:2
    00:09:50.000 : en:3
    00:16:21.000 : en:4
    00:19:51.000 : en:5
    00:25:34.000 : en:6
    00:30:47.000 : en:7
    00:35:18.000 : en:8
    00:42:00.000 : en:9
    00:46:01.000 : en:10
    00:49:20.000 : en:11
    00:55:34.000 : en:12
    00:59:41.000 : en:13
    01:07:40.000 : en:14
    01:12:27.000 : en:15
    01:16:11.000 : en:16
    01:24:47.000 : en:17
    01:29:13.000 : en:18
    01:36:37.000 : en:19
    01:42:48.000 : en:20

    Скриншоты для ознакомления:


    Релиз подготовил:
    Размер скачиваемого торрента: 3.75 GB (4026397707 Bytes)

    Мотель / The Bag Man (2014) WEB-DL 720p | L1 торрент скачать бесплатно
    загрузка...
    Рейтинг →
     (голосов: 1, оценка 3/5, голосовать можно 1 раз )

    Другие торренты по теме:

  • Адский мотель / Мотель Ад / Motel Hell (1980) BDRip-AVC от olegek70 | A
  • Мотель Бейтса (Мотель Бэйтс) / Bates Motel (2013) WEB-DL 1080p от MediaClub
  • Мотель Бейтса (Мотель Бэйтс) / Bates Motel (2013) WEB-DL 720p от MediaClub
  • Мотель Бейтса / Мотель Бэйтс / Bates Motel (2013) WEB-DLRip | LostFilm
  • Мотель Бейтса / Мотель Бейтсов / Bates Motel (2014) WEB-DLRip | NewStudio скачать через торрент бесплатно
  • Мотель Бейтса / Мотель Бейтсов / Bates Motel (2014) WEB-DLRip | LostFilm
  • Мотель Бейтса / Мотель Бейтсов / Bates Motel (2014) WEB-DLRip от Scarabey | LostFilm
  • Мотель Бейтса / Мотель Бейтсов / Bates Motel (2014) WEB-DL 720p | LostFilm, NewStudio


    • Комментарии (0):

      Информация

      Информация

        Посетители, находящиеся в группе Гости, не могут оставлять комментарии в данной новости.

        ↓ Меню



        ↓ Опрос

        А Вы добавили сайт в закладки?
        Да
        Не


        Top 10 за месяц (Фильмы)